<?xml version="1.0" standalone="no"?>
<!DOCTYPE svg PUBLIC "-//W3C//DTD SVG 1.1//EN" "http://www.w3.org/Graphics/SVG/1.1/DTD/svg11.dtd" >
<svg>
<metadata>
Created by FontForge 20090914 at Sun Oct 28 04:42:18 2012
 By www-data
Playbill 1.0 
</metadata>
<defs>
<font id="PlaybillRegular" horiz-adv-x="150" >
  <font-face 
    font-family="Playbill"
    font-weight="5"
    font-stretch="normal"
    units-per-em="1000"
    panose-1="0 0 0 0 0 0 0 0 0 0"
    ascent="800"
    descent="-200"
    x-height="556"
    cap-height="778"
    bbox="2.00098 -223 935 800"
    underline-thickness="19"
    underline-position="-138"
    unicode-range="U+0020-U+2122"
  />
<missing-glyph horiz-adv-x="777" 
d="M48 0v777h681v-777h-681zM681 48v681h-585v-681h585z" />
    <glyph glyph-name=".notdef" horiz-adv-x="777" 
d="M48 0v777h681v-777h-681zM681 48v681h-585v-681h585z" />
    <glyph glyph-name="space" unicode=" " horiz-adv-x="203" 
 />
    <glyph glyph-name="exclam" unicode="!" horiz-adv-x="198" 
d="M67 59c0 10 4.66699 15 14 15h46c8 0 12 -4.66699 12 -14v-45c0 -10 -4.66699 -15 -14 -15h-43c-6 0 -10 1 -12 3s-3 6.33301 -3 13v43zM17 642c6.66699 24 15.667 49.3311 27 75.998s30 46.667 56 60c20 -13.333 38.333 -32.666 55 -57.999s25 -51.333 25 -78v-239
c-12.667 -10.667 -24 -32.667 -34 -66s-15 -82.666 -15 -147.999h-64c0 66.667 -5 117 -15 151l-35 63v239z" />
    <glyph glyph-name="quotedbl" unicode="&#x22;" horiz-adv-x="147" 
d="M63 723h-33v-91h33v91zM123 723h-33v-91h33v91z" />
    <glyph glyph-name="numbersign" unicode="#" horiz-adv-x="499" 
d="M141 511v102h40v-102h131v102h40v-102h104v-38h-102v-133h101v-40h-102v-102h-41v102h-130v-102h-40v102h-101v40h100v132h-100v39h100zM182 471v-131h130v131h-130z" />
    <glyph glyph-name="dollar" unicode="$" horiz-adv-x="313" 
d="M175 772l0.000976562 -60.998c7.33301 -4 12 -7.83301 14 -11.5s3.33301 -7.16699 4 -10.5c1.33301 6.66699 3.5 13.167 6.5 19.5s8.5 9.5 16.5 9.5h48c14.667 0 22 -5.33301 22 -16v-196c0 -8 -1 -13 -3 -15s-7.66699 -3 -17 -3h-39
c-8.66699 0 -14.334 1.16699 -17.001 3.5s-4 12.5 -4 30.5c0 9.33301 -2.83301 17.166 -8.5 23.499s-13.167 10.833 -22.5 13.5v-123l27 -22c32 -27.333 54.333 -50.5 67 -69.5s19 -56.833 19 -113.5c0 -63.333 -5.5 -109.333 -16.5 -138s-40.5 -43 -88.5 -43h-8v-50h-36v61
c-12 7.33301 -18 14.666 -18 21.999l-18 -30h-55c-13.333 0 -20 6 -20 18v199c0 6 0.833008 9.83301 2.5 11.5s6.16699 2.5 13.5 2.5h46c7.33301 0 12 -1.5 14 -4.5s3 -10.167 3 -21.5c0 -14 3 -24.667 9 -32s13.667 -11 23 -11v124l-21 16
c-40.667 30.667 -66.5 57.5 -77.5 80.5s-16.5 52.833 -16.5 89.5v28c0 54 5.5 95.667 16.5 125s38.833 44 83.5 44l15 -1v51h36zM175.001 311.002v-86.999c5.33301 2.66699 9.83301 6.66699 13.5 12s5.5 11.666 5.5 18.999c0 12 -1.5 22.167 -4.5 30.5
s-7.83301 16.833 -14.5 25.5zM139.001 468.003v84.999c-6.66699 -3.33301 -12 -7.66602 -16 -12.999s-6 -12 -6 -20c0 -10 1.83301 -18.833 5.5 -26.5s9.16699 -16.167 16.5 -25.5z" />
    <glyph glyph-name="percent" unicode="%" horiz-adv-x="550" 
d="M81 0l442 673h-40l-442 -673h40zM71 453v166.002c0 23.333 5.16699 41.166 15.5 53.499s22.833 18.5 37.5 18.5s27.167 -6.16699 37.5 -18.5s15.5 -30.166 15.5 -53.499v-166c0 -24.667 -5 -43.334 -15 -56.001s-22 -19 -36 -19c-14.667 0 -27.5 6.66699 -38.5 20
s-16.5 31.666 -16.5 54.999zM109 592.002v-113c0 -16 5 -24 15 -24s15 8 15 24v114c0 14 -5 21 -15 21s-15 -7.33301 -15 -22zM391 72.002v166c0 23.333 5.16699 41.166 15.5 53.499s22.833 18.5 37.5 18.5s27.167 -6.16699 37.5 -18.5s15.5 -30.166 15.5 -53.499v-166
c0 -24.667 -4.83301 -43.334 -14.5 -56.001s-21.5 -19 -35.5 -19c-14.667 0 -27.667 6.83301 -39 20.5s-17 31.834 -17 54.501zM429 211.002v-113c0 -16 5 -24 15 -24s15 8 15 24v114c0 14 -5 21 -15 21s-15 -7.33301 -15 -22z" />
    <glyph glyph-name="ampersand" unicode="&#x26;" horiz-adv-x="692" 
d="M132 364c-34 28.667 -57.3291 52 -69.9961 70s-19 48.333 -19 91c0 64.667 11.5 115.167 34.5 151.5s55.5 54.5 97.5 54.5c40.667 0 73.5 -18.667 98.5 -56s37.5 -85 37.5 -143c0 -53.333 -3.66699 -89.666 -11 -108.999l-31 -50
c9.33301 -11.333 19.166 -21.5 29.499 -30.5l27.5 -24c8 -7 15 -10.5 21 -10.5c4.66699 0 11.167 4.16699 19.5 12.5s14.166 14.5 17.499 18.5s5.66602 7.33301 6.99902 10l67 -67l-47 -49l234 -234l-146 1l-156 159l-95 -107c-12 -13.333 -26.667 -25.333 -44 -36
s-35 -16 -53 -16c-12.667 0 -25.334 3.5 -38.001 10.5s-28.5 24 -47.5 51s-32 48.5 -39 64.5s-10.5 33.667 -10.5 53c0 26 4.16699 47.667 12.5 65s23.833 37.666 46.5 60.999zM137.004 554c0 -18 1.66797 -32.167 5.00098 -42.5s11.166 -22 23.499 -35
s22.5 -19.5 30.5 -19.5c7.33301 0 14 5.33301 20 16s9.83301 18.834 11.5 24.501s2.5 20.167 2.5 43.5c0 17.333 -4.33301 30.166 -13 38.499s-19.667 12.5 -33 12.5c-12.667 0 -23.667 -3.5 -33 -10.5s-14 -16.167 -14 -27.5zM195.005 304
c-6.66699 -6 -14.5 -13.5 -23.5 -22.5s-21.333 -22.167 -37 -39.5s-23.5 -32.333 -23.5 -45c0 -15.333 5.16699 -29.5 15.5 -42.5s22.5 -19.5 36.5 -19.5c11.333 0 22 5 32 15l75 79z" />
    <glyph glyph-name="quotesingle" unicode="'" horiz-adv-x="73" 
d="M54 723h-33v-91h33v91z" />
    <glyph glyph-name="parenleft" unicode="(" horiz-adv-x="88" 
d="M8 58l0.000976562 684c0 18 3.33301 32.167 10 42.5s18 15.5 34 15.5h22c4 -2.66699 6 -4.66699 6 -6v-142h-29c-5.33301 0 -9.5 -2.16699 -12.5 -6.5s-4.5 -13.5 -4.5 -27.5v-435c0 -11.333 1 -20 3 -26s6.66699 -9 14 -9h29v-142c0 -2 -0.833008 -3.5 -2.5 -4.5
s-2.83398 -1.5 -3.50098 -1.5h-22c-16 0 -27.333 5 -34 15s-10 24.333 -10 43z" />
    <glyph glyph-name="parenright" unicode=")" horiz-adv-x="88" 
d="M76 742v-684c0 -17.333 -3.33301 -31.333 -10 -42s-17.667 -16 -33 -16h-23c-4 2.66699 -6 4.66699 -6 6v142h30c6.66699 0 11.167 3.33301 13.5 10s3.5 15 3.5 25v435c0 11.333 -1 19.833 -3 25.5s-6.66699 8.5 -14 8.5h-30v142c0 2 0.666992 3.33301 2 4l4 2h23
c16 0 27.167 -5 33.5 -15s9.5 -24.333 9.5 -43z" />
    <glyph glyph-name="asterisk" unicode="*" horiz-adv-x="198" 
d="M80 418h-63v-17h63l-43 -43l11 -11l43 43v-62h17v62l43 -43l12 11l-44 43h62v17h-62l45 44l-12 12l-44 -45v63h-17v-63l-44 45l-11 -12z" />
    <glyph glyph-name="plus" unicode="+" horiz-adv-x="178" 
d="M18 384h51v-51h40v51h51v40h-51v51h-40v-51h-51v-40z" />
    <glyph glyph-name="comma" unicode="," 
d="M68 -37l5.00098 36c-15.333 0 -26 2.16699 -32 6.5s-9 13.833 -9 28.5c0 10.667 1.83301 19.334 5.5 26.001s13.834 10 30.501 10c14.667 0 24.5 -2.5 29.5 -7.5s7.5 -14.5 7.5 -28.5v-14c0 -13.333 -1.33301 -26.5 -4 -39.5s-11.834 -25.5 -27.501 -37.5
s-24.834 -16.667 -27.501 -14c-0.666992 0.666992 2.5 4.66699 9.5 12s11.167 14.666 12.5 21.999z" />
    <glyph glyph-name="hyphen" unicode="-" horiz-adv-x="335" 
d="M62 255v73h197v-73h-197z" />
    <glyph glyph-name="hyphen" unicode="&#xad;" horiz-adv-x="335" 
d="M62 255v73h197v-73h-197z" />
    <glyph glyph-name="period" unicode="." 
d="M36 37c0 10.667 1.83301 19.333 5.5 26s13.834 10 30.501 10c14.667 0 24.5 -2.5 29.5 -7.5s7.5 -14.5 7.5 -28.5c0 -15.333 -2.33301 -25.333 -7 -30s-14.334 -7 -29.001 -7s-24.5 2.5 -29.5 7.5s-7.5 14.833 -7.5 29.5z" />
    <glyph glyph-name="slash" unicode="/" horiz-adv-x="550" 
d="M81 0l442 673h-40l-442 -673h40z" />
    <glyph glyph-name="zero" unicode="0" horiz-adv-x="315" 
d="M23 183l0.000976562 414c0 56.667 13 100.834 39 132.501s56.667 47.5 92 47.5c36 0 67 -15.833 93 -47.5s39 -75.834 39 -132.501v-414c0 -60.667 -12.333 -107.167 -37 -139.5s-54.334 -48.5 -89.001 -48.5c-36.667 0 -68.667 16.833 -96 50.5s-41 79.5 -41 137.5z
M116.001 532v-287c0 -18 3.83301 -32.167 11.5 -42.5s16.834 -15.5 27.501 -15.5c10 0 18.833 5 26.5 15s11.5 24.333 11.5 43v288c0 16 -3.83301 28.667 -11.5 38s-16.5 14 -26.5 14c-10.667 0 -19.834 -4.5 -27.501 -13.5s-11.5 -22.167 -11.5 -39.5z" />
    <glyph glyph-name="one" unicode="1" horiz-adv-x="183" 
d="M165 20c0 -13.333 -6.66699 -20.001 -20 -20.001h-107c-14 0 -21 6.66699 -21 20v153c0 10 7.33301 15 22 15h9v402h-10c-14 0 -21 7 -21 21v101c0 8.66699 5.16699 15.334 15.5 20.001s19.833 8.66699 28.5 12c10.667 10.667 20.5 19 29.5 25s18.833 9 29.5 9h5
c9.33301 0 14 -6.66699 14 -20v-570h11c10 0 15 -5 15 -15v-153z" />
    <glyph glyph-name="two" unicode="2" horiz-adv-x="325" 
d="M222 249c0 13.333 5.00098 19.9961 15.001 19.9961h46c13.333 0 20 -5 20 -15v-234c0 -13.333 -6.66699 -20 -20 -20h-253v289c0 26 8.16699 49.333 24.5 70s38.333 43.334 66 68.001s48.5 44.834 62.5 60.501s21 34.834 21 57.501c0 18.667 -5 30.834 -15 36.501
s-21.333 8.5 -34 8.5c-9.33301 0 -18.5 -3.33301 -27.5 -10s-13.5 -16.667 -13.5 -30v-22c0 -13.333 -8.33301 -20 -25 -20h-38c-14 0 -21 6.66699 -21 20v108c0 26 12.333 56.167 37 90.5s55.667 51.5 93 51.5c48 0 83.833 -19 107.5 -57s35.5 -76.333 35.5 -115v-102
c0 -12 -5.66699 -29.5 -17 -52.5s-23.333 -42.833 -36 -59.5c-38.667 -32.667 -68.334 -60 -89.001 -82s-31 -40.667 -31 -56v-66h71c14 0 21 6.66699 21 20v41z" />
    <glyph glyph-name="three" unicode="3" horiz-adv-x="364" 
d="M197 371c-9.33301 -6.66699 -15 -10 -17 -10c-6 0 -11.833 2.66699 -17.5 8s-12 11 -19 17s-13.667 12.167 -20 18.5s-9.5 11.5 -9.5 15.5s5.66699 11.667 17 23l146 147h-136v-61c0 -13.333 -7 -20 -21 -20h-61c-13.333 0 -20 6.33301 -20 19v230
c0 13.333 6.66699 20 20 20h265c14 0 21 -6.66699 21 -20v-189c0 -6.66699 -14.667 -24.667 -44 -54l-89 -87h45c22 0 40.333 -4.83301 55 -14.5s22 -30.167 22 -61.5v-200c0 -34 -16.833 -67.833 -50.5 -101.5s-69.5 -50.5 -107.5 -50.5c-40 0 -75.5 17.5 -106.5 52.5
s-46.5 68.167 -46.5 99.5v148c0 13.333 7 20 21 20h76c13.333 0 20 -6.66699 20 -20v-66c0 -12.667 3.5 -23.667 10.5 -33s18.167 -14 33.5 -14c14 0 25 5 33 15s12 20.667 12 32v76c0 15.333 -3.83301 30.5 -11.5 45.5s-14.5 20.167 -20.5 15.5z" />
    <glyph glyph-name="four" unicode="4" horiz-adv-x="310" 
d="M288 20c0 -8 -1.33203 -13.333 -3.99902 -16s-8.33398 -4 -17.001 -4h-99c-14 0 -21 6.66699 -21 20v148c0 13.333 7.33301 20 22 20h12v107c0 10.667 -7.33301 16 -22 16h-116c-14 0 -21 6.33301 -21 19v87c0 3.33301 15.167 43 45.5 119l71.5 178
c17.333 42.667 26.333 64 27 64h68c14 0 21 -6.66699 21 -20v-387h9c16 0 24 -6.66699 24 -20v-20c0 -13.333 -7.66699 -20 -23 -20h-10v-123h10c15.333 0 23 -6.66699 23 -20v-148zM180.001 591l-81 -220h62c12.667 0 19 3.66699 19 11v209z" />
    <glyph glyph-name="five" unicode="5" horiz-adv-x="353" 
d="M39 369l37.001 408.999h264l-15 -188h-174l-14 -123c24 13.333 48 20 72 20c33.333 0 61 -12 83 -36s33 -53.667 33 -89v-179c0 -45.333 -12 -87.166 -36 -125.499s-66 -57.5 -126 -57.5s-98.833 14.5 -116.5 43.5s-26.5 68.833 -26.5 119.5v122
c0 13.333 6.66699 20 20 20h69c13.333 0 20 -6.66699 20 -20v-67c0 -12.667 1.5 -21.167 4.5 -25.5s7.5 -6.5 13.5 -6.5c7.33301 1.33301 12.666 2 15.999 2c12 0 23 4.5 33 13.5s15 26.5 15 52.5v82c0 14 -3.33301 25.833 -10 35.5s-17.334 14.5 -32.001 14.5
c-7.33301 0 -11.666 -2.83301 -12.999 -8.5s-6 -8.5 -14 -8.5h-103z" />
    <glyph glyph-name="six" unicode="6" horiz-adv-x="335" 
d="M129 288v-43c0 -18 3.66699 -32.167 11 -42.5s16 -15.5 26 -15.5s18.5 4.83301 25.5 14.5s10.5 24.167 10.5 43.5v44c0 16.667 -3.5 29.5 -10.5 38.5s-15.5 13.5 -25.5 13.5c-24.667 0 -37 -17.667 -37 -53zM309 582l0.000976562 -65.999v-11
c-1.33301 -3.33301 -6 -5 -14 -5h-77c-9.33301 0 -14 5 -14 15v22c0 16.667 -3.66699 29.5 -11 38.5s-16 13.5 -26 13.5s-18.833 -4.66699 -26.5 -14s-11.5 -22.333 -11.5 -39v-110c10.667 12 22.667 20.5 36 25.5s29.333 7.5 48 7.5c25.333 0 47.666 -9.33301 66.999 -28
s29 -42 29 -70v-178c0 -60.667 -13.333 -107.167 -40 -139.5s-59 -48.5 -97 -48.5c-40 0 -74.833 16.833 -104.5 50.5s-44.5 79.5 -44.5 137.5v399c0 46 14 90 42 132s62 63 102 63s73.667 -21.833 101 -65.5s41 -86.834 41 -129.501z" />
    <glyph glyph-name="seven" unicode="7" horiz-adv-x="356" 
d="M263 590l-172.001 0.000976562v-45c0 -14 -6.66699 -21 -20 -21h-32c-14 0 -21 7 -21 21v233h320v-207l-37 -63.5c-13.333 -23 -25.666 -47.333 -36.999 -73s-22.333 -62.334 -33 -110.001s-16 -98.167 -16 -151.5v-173h-156v62c0 54 13.5 122.333 40.5 205
s58.167 152.667 93.5 210z" />
    <glyph glyph-name="eight" unicode="8" horiz-adv-x="291" 
d="M14 636c0 23.333 11.5 52.8301 34.5 88.4971s55.5 53.5 97.5 53.5c38 0 69.167 -17 93.5 -51s36.5 -64.333 36.5 -91v-86c0 -24 -7 -45.667 -21 -65s-28.333 -36.666 -43 -51.999c14.667 -11.333 29 -25.166 43 -41.499s21 -38.5 21 -66.5v-182
c0 -22 -12.167 -51.333 -36.5 -88s-55.5 -55 -93.5 -55c-36 0 -67 17.833 -93 53.5s-39 65.5 -39 89.5v182c0 30 8.33301 52.833 25 68.5s33.667 28.834 51 39.501c-17.333 12.667 -34.333 28 -51 46s-25 41.667 -25 71v86zM106 519.997c0 -46.667 13.333 -70 40 -70
c13.333 0 23.5 6.16699 30.5 18.5s10.5 29.5 10.5 51.5s-3.5 39.167 -10.5 51.5s-17.167 18.5 -30.5 18.5c-12.667 0 -22.5 -6.16699 -29.5 -18.5s-10.5 -29.5 -10.5 -51.5zM105 267.997c0 -19.333 4.16895 -37.5 12.502 -54.5s17.833 -25.5 28.5 -25.5
c11.333 0 21.166 8.16699 29.499 24.5s12.5 34.833 12.5 55.5c0 20 -4 38 -12 54s-17.667 24 -29 24c-10.667 0 -20.334 -8 -29.001 -24s-13 -34 -13 -54z" />
    <glyph glyph-name="nine" unicode="9" horiz-adv-x="335" 
d="M208 496v37c0 18 -3.5 32.167 -10.5 42.5s-15.833 15.5 -26.5 15.5c-10 0 -18.667 -5.16699 -26 -15.5s-11 -24.5 -11 -42.5v-38c0 -16.667 3.66699 -29.5 11 -38.5s16 -13.5 26 -13.5c24.667 0 37 17.667 37 53zM27 195l0.00195312 66.9971v11
c1.33301 3.33301 6.33301 5 15 5h77c9.33301 0 14 -5 14 -15v-22c0 -16 3.83301 -28.667 11.5 -38s16.5 -14 26.5 -14c9.33301 0 17.833 4.66699 25.5 14s11.5 22.333 11.5 39v110c-10.667 -12.667 -22.334 -21.5 -35.001 -26.5s-29 -7.5 -49 -7.5
c-26 0 -48.667 9.33301 -68 28s-29 42.334 -29 71.001v167c0 52.667 14.5 98.334 43.5 137.001s62.833 58 101.5 58s72 -20.167 100 -60.5s42 -85.166 42 -134.499v-389c0 -46 -14 -90 -42 -132s-61.667 -63 -101 -63c-40.667 0 -74.834 22 -102.501 66s-41.5 87 -41.5 129z
" />
    <glyph glyph-name="colon" unicode=":" 
d="M30 373c0 14 2.66797 23.667 8.00098 29s15 8 29 8s23.667 -2.66699 29 -8s8 -15 8 -29c0 -15.333 -2.33301 -25.333 -7 -30s-14.334 -7 -29.001 -7c-14 0 -23.833 2.5 -29.5 7.5s-8.5 14.833 -8.5 29.5zM30.001 37c0 13.333 2.83398 22.667 8.50098 28s15.167 8 28.5 8
c14.667 0 24.5 -2.5 29.5 -7.5s7.5 -14.5 7.5 -28.5c0 -15.333 -2.33301 -25.333 -7 -30s-14.334 -7 -29.001 -7c-14 0 -23.833 2.5 -29.5 7.5s-8.5 14.833 -8.5 29.5z" />
    <glyph glyph-name="semicolon" unicode=";" 
d="M68 -37l5.00098 36c-15.333 0 -26 2.16699 -32 6.5s-9 13.833 -9 28.5c0 10.667 1.83301 19.334 5.5 26.001s13.834 10 30.501 10c14.667 0 24.5 -2.5 29.5 -7.5s7.5 -14.5 7.5 -28.5v-14c0 -13.333 -1.33301 -26.5 -4 -39.5s-11.834 -25.5 -27.501 -37.5
s-24.834 -16.667 -27.501 -14c-0.666992 0.666992 2.5 4.66699 9.5 12s11.167 14.666 12.5 21.999zM30.001 373c0 14 2.66797 23.667 8.00098 29s15 8 29 8s23.667 -2.66699 29 -8s8 -15 8 -29c0 -15.333 -2.33301 -25.333 -7 -30s-14.334 -7 -29.001 -7
c-14 0 -23.833 2.5 -29.5 7.5s-8.5 14.833 -8.5 29.5z" />
    <glyph glyph-name="equal" unicode="=" horiz-adv-x="301" 
d="M228 305h-166c-10.667 0 -16 5.66699 -16 17v43c0 10 5.33301 15 16 15h166c10 0 15 -5 15 -15v-43c0 -11.333 -5 -17 -15 -17zM228 206h-166c-10.667 0 -16 6.33301 -16 19v41c0 12.667 5.33301 19 16 19h166c10 0 15 -6.33301 15 -19v-41c0 -12.667 -5 -19 -15 -19z
" />
    <glyph glyph-name="question" unicode="?" horiz-adv-x="331" 
d="M124 540l-0.000976562 -20.9971c0 -13.333 -5 -20 -15 -20h-61c-14 0 -21 6.66699 -21 20v62c0 30.667 11.167 71.167 33.5 121.5s53.5 75.5 93.5 75.5h36c30 0 57 -16.333 81 -49s36 -69.334 36 -110.001v-57c0 -24 -4 -43.5 -12 -58.5s-22.167 -37.833 -42.5 -68.5
s-36.666 -57.834 -48.999 -81.501s-18.5 -45.834 -18.5 -66.501v-79c0 -13.333 -6.66699 -20 -20 -20h-36c-13.333 0 -20 6.66699 -20 20v98c0 21.333 6.66699 45.833 20 73.5s24.833 49.334 34.5 65.001s20.667 30.667 33 45s18.5 24.166 18.5 29.499
c0.666992 6.66699 1 12.667 1 18c0 19.333 -4 33 -12 41s-19 12 -33 12c-17.333 0 -29.5 -4.16699 -36.5 -12.5s-10.5 -20.833 -10.5 -37.5zM128.999 76.0029h36c13.333 0 20 -6.66699 20 -20v-36c0 -13.333 -6.66699 -20 -20 -20h-36c-13.333 0 -20 6.66699 -20 20v36
c0 13.333 6.66699 20 20 20z" />
    <glyph glyph-name="A" unicode="A" horiz-adv-x="413" 
d="M47 189l63 401h-28v188h237v-189h-27l62 -400h26v-189h-156v191h44l-22 106h-89l-19 -110h41v-187h-155v189h23zM232 396l-31 169l-30 -169h61z" />
    <glyph glyph-name="B" unicode="B" horiz-adv-x="371" 
d="M24 760c0 12 6.33496 18 19.002 18h207c26.667 0 47.5 -10.333 62.5 -31s22.5 -47.334 22.5 -80.001v-219c0 -15.333 -6.5 -25.5 -19.5 -30.5s-23.167 -8.5 -30.5 -10.5c11.333 -2.66699 22.666 -6.5 33.999 -11.5s17 -14.833 17 -29.5v-259
c0 -36.667 -6.5 -63.667 -19.5 -81s-35.5 -26 -67.5 -26h-203c-8.66699 0 -14.334 1.33301 -17.001 4s-4 8 -4 16v157c0 8.66699 6.66699 13.334 20 14.001s20 4.66699 20 12v370c0 12 -6 18 -18 18h-16c-4.66699 1.33301 -7 6.33301 -7 15v154zM167.002 590
c-8 0 -12.001 -6.33398 -12.001 -19.001v-111c0 -12 4 -18 12 -18h27c10.667 0 21.834 7.33301 33.501 22s17.5 34.334 17.5 59.001c0 23.333 -5.16699 40.333 -15.5 51s-21.5 16 -33.5 16h-29zM167.001 360.999c-8 0 -12 -5 -12 -15v-143c0 -10 3.66699 -15 11 -15h27
c20.667 0 34.667 7.16699 42 21.5s11 40.5 11 78.5c0 28 -5.5 47.167 -16.5 57.5s-24.5 15.5 -40.5 15.5h-22z" />
    <glyph glyph-name="C" unicode="C" horiz-adv-x="320" 
d="M158 187c18.667 0 30.832 6.00098 36.499 18.001s8.5 29.333 8.5 52v67c0 8.66699 1.16699 14.5 3.5 17.5s8.5 4.5 18.5 4.5h40c14.667 0 22 -7 22 -21v-38.5v-39.5c0 -24.667 -0.333008 -37.334 -1 -38.001c0 -54 -8 -102.333 -24 -145s-50.667 -64 -104 -64
c-38 0 -69.667 12 -95 36s-38 52.667 -38 86v519c0 52 7.66699 88.167 23 108.5s40.666 30.5 75.999 30.5c22.667 0 38.334 -5.66699 47.001 -17s15.667 -23 21 -35c1.33301 11.333 3.33301 22.5 6 33.5s7.33398 16.5 14.001 16.5h52c5.33301 0.666992 9 1 11 1
c6.66699 0 10 -7 10 -21v-254c0 -10 -1 -16 -3 -18s-7.66699 -3 -17 -3h-42c-13.333 0 -20 6.66699 -20 20v37c0 12.667 -4 24.167 -12 34.5s-19.333 15.5 -34 15.5c-12.667 0 -22.5 -4.16699 -29.5 -12.5s-10.5 -17.833 -10.5 -28.5v-295c0 -24.667 2.83301 -42 8.5 -52
s16.5 -15 32.5 -15z" />
    <glyph glyph-name="D" unicode="D" horiz-adv-x="374" 
d="M34 762c0 10.667 6.33301 16.001 19 16.001h201c34.667 0 58.5 -9.66699 71.5 -29s19.5 -49.333 19.5 -90v-541c0 -34 -6 -62.167 -18 -84.5s-37 -33.5 -75 -33.5h-203c-9.33301 0 -14 5 -14 15v162c0 8 6.66699 12.167 20 12.5s20 4.83301 20 13.5v373
c0 10.667 -6.33301 16 -19 16h-15c-4.66699 1.33301 -7 5.66602 -7 12.999v157zM176 589.001c-6.66699 0 -10 -5 -10 -15v-371c0 -10 3.33301 -15 10 -15h12c20 0 35.667 3.5 47 10.5s17 22.5 17 46.5v297c0 19.333 -4.5 32.333 -13.5 39s-20.5 10 -34.5 10
c-14 -1.33301 -23.333 -2 -28 -2z" />
    <glyph glyph-name="E" unicode="E" horiz-adv-x="347" 
d="M23 758c0 7.33301 1.5 12.5 4.5 15.5s8.5 4.5 16.5 4.5h254c13.333 0 20 -5 20 -15v-274c0 -14 -6.66699 -21 -20 -21h-51c-7.33301 0 -12.5 1.5 -15.5 4.5s-4.5 8.5 -4.5 16.5v85c0 7.33301 -0.833008 11.833 -2.5 13.5s-6.16699 2.5 -13.5 2.5h-56
c-6.66699 0 -11 -0.666992 -13 -2s-3 -6 -3 -14v-131c0 -10.667 3.66699 -16 11 -16h77c13.333 0 20 -4.66699 20 -14v-42c0 -13.333 -6.66699 -20 -20 -20h-72c-7.33301 0 -11.833 -0.833008 -13.5 -2.5s-2.5 -6.16699 -2.5 -13.5v-127c0 -13.333 3.66699 -20 11 -20h66
c6.66699 0 10.167 2.83301 10.5 8.5s0.5 9.83398 0.5 12.501v86c0 10 5 15 15 15h61c10 0 15 -5 15 -15v-275c0 -13.333 -6.66699 -20 -20 -20h-254c-14 0 -21 6.66699 -21 20v158c0 7.33301 4.33301 12 13 14s13 7.33301 13 16v372c0 8.66699 -4.33301 13.667 -13 15
s-13 6.66602 -13 15.999v147z" />
    <glyph glyph-name="F" unicode="F" horiz-adv-x="357" 
d="M162 1l-105.999 -0.999023c-13.333 0 -20 6.66699 -20 20v158c0 7.33301 4.16699 12 12.5 14s12.5 7.33301 12.5 16v372c0 8.66699 -4.16699 13.667 -12.5 15s-12.5 6.66602 -12.5 15.999v147c0 13.333 6.66699 20 20 20h254c13.333 0 20 -5 20 -15v-274
c0 -14 -6.66699 -21 -20 -21h-41c-7.33301 0 -12.5 1.5 -15.5 4.5s-4.5 8.5 -4.5 16.5v85v11c-1.33301 3.33301 -6.33301 5 -15 5h-66c-8.66699 0 -13.667 -1 -15 -3s-2 -6.33301 -2 -13v-131c0 -8 0.666992 -12.667 2 -14s4.66602 -2 9.99902 -2h76
c13.333 0 20 -4.66699 20 -14v-42c0 -13.333 -6.66699 -20 -20 -20h-71c-8 0 -12.833 -0.833008 -14.5 -2.5s-2.5 -6.16699 -2.5 -13.5v-127c0 -13.333 4 -20 12 -20c6 0 9 -3 9 -9v-159c0 -12.667 -3.33301 -19 -10 -19z" />
    <glyph glyph-name="G" unicode="G" horiz-adv-x="357" 
d="M208 546c0 13.333 -4.66797 24.334 -14.001 33.001s-19.666 13 -30.999 13c-12 0 -22 -4.33301 -30 -13s-12 -21.667 -12 -39v-312c0 -12.667 4.16699 -22.5 12.5 -29.5s18.5 -10.5 30.5 -10.5s22.333 3.33301 31 10s13 16.667 13 30v103h-20c-12.667 0 -19 3 -19 9v77
c0 13.333 6.33301 20 19 20h117c13.333 0 20 -6.33301 20 -19v-71c0 -10.667 -5 -16 -15 -16h-15v-311c0 -13.333 -7 -20 -21 -20c-6 0 -13.167 4.66699 -21.5 14s-15.166 16.666 -20.499 21.999c-6.66699 -9.33301 -14.667 -17.666 -24 -24.999s-19.333 -11 -30 -11h-41
c-36.667 0 -63.667 11 -81 33s-26 53.333 -26 94v553c0 34.667 9.83301 59.667 29.5 75s43.5 23 71.5 23c19.333 0 36.166 -6 50.499 -18s21.5 -22.667 21.5 -32c0 19.333 0.5 31.166 1.5 35.499s4.5 8.83301 10.5 13.5h59c14 0 21 -6.33301 21 -19v-254
c0 -7.33301 -1.5 -12.5 -4.5 -15.5s-8.5 -4.5 -16.5 -4.5h-45c-14 0 -21 6.33301 -21 19v43z" />
    <glyph glyph-name="H" unicode="H" horiz-adv-x="390" 
d="M28 758c0 7.33301 1.49902 12.5 4.49902 15.5s8.5 4.5 16.5 4.5h106c14 0 21 -6.66699 21 -20v-147c0 -14 -5 -21 -15 -21h-11v-153c0 -7.33301 1.5 -12.5 4.5 -15.5s8.5 -4.5 16.5 -4.5h51c13.333 0 20 6.66699 20 20v153h-5c-14 0 -21 7 -21 21v147
c0 13.333 7 20 21 20h106c14 0 21 -6.66699 21 -20v-147c0 -14 -7 -21 -21 -21h-5v-402h5c14 0 21 -5 21 -15v-153c0 -7.33301 -1.5 -12.5 -4.5 -15.5s-8.5 -4.5 -16.5 -4.5h-106c-14 0 -21 6.66699 -21 20v153c0 7.33301 1.16699 11.666 3.5 12.999s6.5 2 12.5 2h10v153
c0 10 -0.833008 15.833 -2.5 17.5s-7.5 2.5 -17.5 2.5h-51c-13.333 0 -20.166 -2.66699 -20.499 -8s-0.5 -9.66602 -0.5 -12.999v-152h5c14 0 21 -5 21 -15v-153c0 -13.333 -7.33301 -20 -22 -20h-105c-14 0 -21 6.66699 -21 20v153c0 10 7 15 21 15h5v402h-5
c-14 0 -21 7 -21 21v147z" />
    <glyph glyph-name="I" unicode="I" horiz-adv-x="199" 
d="M146 590v-402h5c14 0 21 -5 21 -15v-153c0 -13.333 -7.33301 -20 -22 -20h-105c-14 0 -21 6.66699 -21 20v153c0 10 7 15 21 15h5v402h-5c-14 0 -21 7 -21 21v147c0 7.33301 1.5 12.5 4.5 15.5s8.5 4.5 16.5 4.5h106c14 0 21 -6.66699 21 -20v-147c0 -14 -5 -21 -15 -21
h-11z" />
    <glyph glyph-name="J" unicode="J" horiz-adv-x="346" 
d="M104 234c0 -14.667 3.99902 -26 11.999 -34s17.667 -12 29 -12c14.667 0 25 4.66699 31 14s9 20 9 32v356h-10c-14 0 -21 7 -21 21v147c0 13.333 7 20 21 20h112c13.333 0 20 -6.33301 20 -19v-148c0 -14 -6.66699 -21 -20 -21h-11v-464
c0 -40.667 -12.667 -72.167 -38 -94.5s-55.666 -33.5 -90.999 -33.5c-34 0 -63.333 10.333 -88 31s-37 49.667 -37 87v194c0 7.33301 1.5 12.5 4.5 15.5s8.5 4.5 16.5 4.5h40c14 0 21 -6.33301 21 -19v-77z" />
    <glyph glyph-name="K" unicode="K" horiz-adv-x="407" 
d="M166 590c-2.66699 0 -4.83301 -1.66699 -6.5 -5s-2.5 -9 -2.5 -17v-110l88 132h-6c-9.33301 0 -15.333 2 -18 6s-4 9 -4 15v147c0 13.333 7.33301 20 22 20h111c13.333 0 20 -6.66699 20 -20v-152c0 -4.66699 -4.16699 -8.5 -12.5 -11.5s-17.5 -4.5 -27.5 -4.5l-92 -141
l58 -129l49 -130c14.667 0 24.167 -1.5 28.5 -4.5s6.5 -8.5 6.5 -16.5v-147c0 -13.333 -6.66699 -20 -20 -20h-117c-13.333 0 -20 6.66699 -20 20v153c0 10 6.66699 15 20 15l-66 181c-6.66699 0.666992 -11.667 -4 -15 -14s-5 -29 -5 -57v-112h4
c13.333 0 20 -6.66699 20 -20v-148c0 -13.333 -6.66699 -20 -20 -20h-116c-14 0 -21 6.66699 -21 20v153c0 10 7 15 21 15h10v386c0 10.667 -1.66699 16 -5 16c-9.33301 0 -15.333 2 -18 6s-4 9 -4 15v146c0 14 7.33301 21 22 21h116c13.333 0 20 -6.66699 20 -20v-152
c0 -10.667 -6.66699 -16 -20 -16z" />
    <glyph glyph-name="L" unicode="L" horiz-adv-x="356" 
d="M36 757c0 14 6.66797 21 20.001 21h117c13.333 0 20 -7 20 -21v-146c0 -14 -7 -21 -21 -21h-14v-402h66c10 0 15 5 15 15v132c0 6.66699 1 11 3 13s6 3 12 3h61c5.33301 0 9.16602 -0.5 11.499 -1.5s3.5 -5.83301 3.5 -14.5v-314c0 -14 -6.66699 -21 -20 -21h-254
c-13.333 0 -20 6.66699 -20 20v153c0 10 5 15 15 15h15v401h-11c-12.667 0 -19 7 -19 21v147z" />
    <glyph glyph-name="M" unicode="M" horiz-adv-x="584" 
d="M293 386l-82 391h-157c-13.333 0 -20 -6.66699 -20 -20v-147c0 -14 6.66699 -21 20 -21h10v-402h-10c-13.333 0 -20 -4.66699 -20 -14v-154c0 -12.667 6.66699 -19 20 -19h107c13.333 -0 20 6.33301 20 19v154c0 9.33301 -5 14 -15 14h-16v402l122 -589h41l122 588v-401
h-15c-10.667 0 -16 -5 -16 -15v-153c0 -7.33301 1.5 -12.5 4.5 -15.5s8.5 -4.5 16.5 -4.5h107c13.333 0 20 6.66699 20 20v153c0 10 -6.66699 15 -20 15h-11v401h11c14 0 21 7.33301 21 22v146c0 13.333 -7 20 -21 20h-158l-81 -391v1z" />
    <glyph glyph-name="N" unicode="N" horiz-adv-x="437" 
d="M271 605c0 -6 2.33203 -10 6.99902 -12s10.334 -3 17.001 -3v-282l-99 469l-144 1c-12.667 0 -19 -5.33301 -19 -16v-151c0 -14.667 6.66699 -22 20 -22h5v-401h-14h-11v-11v-153v-13c0 -7.33301 4 -11 12 -11h110c7.33301 0 11.833 1.16699 13.5 3.5s2.5 7.5 2.5 15.5
v153c0 10.667 -5.33301 16 -16 16h-15v401l136 -578c1.33301 -5.33301 3.33301 -8.5 6 -9.5s7.66699 -1.5 15 -1.5h62c12 -0 18 6.33301 18 19v571h17c10.667 0 16 5 16 15v153c0 13.333 -7 20 -21 20h-101c-7.33301 0 -12 -1.66699 -14 -5s-3 -8.33301 -3 -15v-153z" />
    <glyph glyph-name="O" unicode="O" horiz-adv-x="315" 
d="M23 183l0.000976562 414c0 56.667 13 100.834 39 132.501s56.667 47.5 92 47.5c36 0 67 -15.833 93 -47.5s39 -75.834 39 -132.501v-414c0 -60.667 -12.333 -107.167 -37 -139.5s-54.334 -48.5 -89.001 -48.5c-36.667 0 -68.667 16.833 -96 50.5s-41 79.5 -41 137.5z
M116.001 532v-287c0 -18 3.83301 -32.167 11.5 -42.5s16.834 -15.5 27.501 -15.5c10 0 18.833 5 26.5 15s11.5 24.333 11.5 43v288c0 16 -3.83301 28.667 -11.5 38s-16.5 14 -26.5 14c-10.667 0 -19.834 -4.5 -27.501 -13.5s-11.5 -22.167 -11.5 -39.5z" />
    <glyph glyph-name="P" unicode="P" horiz-adv-x="369" 
d="M337 502c0 -46.667 -11.5 -78.667 -34.5 -96s-70.833 -26 -143.5 -26v-192h21c10 0 15 -5.33301 15 -16v-153c0 -12.667 -5 -19 -15 -19h-127c-8 -0 -12 4.33301 -12 13v11v153v11h11h17v401h-16c-13.333 0 -20 7.33301 -20 22v151c0 10.667 6.33301 16 19 16l154 -1
c50 0 84.333 -7.83301 103 -23.5s28 -40.5 28 -74.5v-177zM170 595c-7.33301 0 -10.999 -5.33301 -10.999 -16v-119c0 -10 3.33301 -15 10 -15h27c18.667 0 32.167 7.5 40.5 22.5s12.5 32.833 12.5 53.5c0 24.667 -5.83301 43.167 -17.5 55.5s-24.834 18.5 -39.501 18.5h-22
z" />
    <glyph glyph-name="Q" unicode="Q" horiz-adv-x="368" 
d="M130 532v-287c0 -18 3.83301 -32.167 11.5 -42.5s16.834 -15.5 27.501 -15.5c10 0 18.833 5 26.5 15s11.5 24.333 11.5 43v288c0 16 -3.83301 28.667 -11.5 38s-16.5 14 -26.5 14c-10.667 0 -19.834 -4.5 -27.501 -13.5s-11.5 -22.167 -11.5 -39.5zM300 183
c10 -1.33301 17.667 -3.33008 23 -5.99707s8 -6.66699 8 -12v-163c-22.667 0 -41 7.33301 -55 22c-6 4 -12 8.33301 -18 13c-22 -28.667 -49.333 -43 -82 -43c-36 0 -68 17.167 -96 51.5s-42 80.166 -42 137.499v414c0 57.333 12.833 101.666 38.5 132.999s56.5 47 92.5 47
c35.333 0 66 -15.833 92 -47.5s39 -75.834 39 -132.501v-414z" />
    <glyph glyph-name="R" unicode="R" horiz-adv-x="440" 
d="M158 588c-8 0 -11.999 -5 -11.999 -15v-119c0 -10 3.66699 -15 11 -15h27c18.667 0 32.167 7.5 40.5 22.5s12.5 32.833 12.5 53.5c0 24.667 -5.83301 43 -17.5 55s-24.834 18 -39.501 18h-22zM325.001 526c0 -26 -5.5 -49.499 -16.5 -70.499s-30.167 -35.833 -57.5 -44.5
c26.667 0 45.667 -17.333 57 -52s17 -73.667 17 -117c0 -22.667 6.66699 -34 20 -34c10.667 0 16 11.333 16 34c0 18 3 27 9 27c5.33301 0 8 -9 8 -27v-105c0 -44.667 -7.33301 -79.334 -22 -104.001s-32 -37 -52 -37c-20.667 0 -38.334 12.333 -53.001 37
s-22 59.334 -22 104.001v189c0 19.333 -5.66699 32.166 -17 38.499s-25.666 9.5 -42.999 9.5c-11.333 -0.666992 -19 -1 -23 -1v-185h22c10 0 15 -5.33301 15 -16v-153c0 -12.667 -5 -19 -15 -19h-127c-8.66699 -0 -13 4.33301 -13 13v11v153v11h12h17v401h-16
c-14 0 -21 7.33301 -21 22v151c0 6.66699 1.33301 11 4 13s8 3 16 3l154 -1c55.333 0 91 -6.33301 107 -19s24 -39 24 -79v-153z" />
    <glyph glyph-name="S" unicode="S" horiz-adv-x="326" 
d="M302 211c0 -73.333 -5.66895 -126.833 -17.002 -160.5s-41.666 -50.5 -90.999 -50.5c-20.667 0 -35.667 4 -45 12s-16.666 17.333 -21.999 28l-18 -36h-56c-6.66699 0 -11.667 1.33301 -15 4s-5 8.33398 -5 17.001v231c0 10.667 5 16 15 16h50
c6.66699 0 11 -1.83301 13 -5.5s3 -12.167 3 -25.5c0 -16.667 4.16699 -29.334 12.5 -38.001s18.5 -13 30.5 -13c13.333 0 24.666 4.16699 33.999 12.5s14 20.166 14 35.499c0 33.333 -11 60.333 -33 81c-25.333 17.333 -49.833 36 -73.5 56s-41.167 43.167 -52.5 69.5
s-17 59.5 -17 99.5v39c0 63.333 5.5 111.666 16.5 144.999s39.5 50 85.5 50c31.333 0 51 -4 59 -12s13 -16.333 15 -25c1.33301 8 3.5 15.667 6.5 23s8.83301 11 17.5 11h49c9.33301 0 15.333 -1 18 -3s4 -7.33301 4 -16v-228v-12c-1.33301 -4.66699 -8 -7 -20 -7h-41
c-9.33301 0 -15.166 2.5 -17.499 7.5s-3.5 15.833 -3.5 32.5c0 13.333 -4.5 23.833 -13.5 31.5s-19.5 11.5 -31.5 11.5c-12.667 0 -23.667 -4 -33 -12s-14 -19.333 -14 -34c0 -29.333 10.833 -53.833 32.5 -73.5l55.5 -49.5c33.333 -33.333 56.333 -60.666 69 -81.999
s19 -64.666 19 -129.999z" />
    <glyph glyph-name="T" unicode="T" horiz-adv-x="373" 
d="M27 759c0 12.667 6.66797 18.998 20.001 18.998h281c14 0 21 -6.66699 21 -20v-249c0 -7.33301 -1 -11.666 -3 -12.999s-6.33301 -2 -13 -2h-35c-10.667 0 -16 5.33301 -16 16v60c0 7.33301 -1.83301 12.5 -5.5 15.5s-8.83398 4.5 -15.501 4.5h-27v-402h13
c6.66699 0 10 -3.33301 10 -10v-158c0 -13.333 -3.33301 -20 -10 -20h-119c-5.33301 0 -8 6.66699 -8 20v159c0 5.33301 5 8 15 8h10v402h-29c-14 0 -21 -6.33301 -21 -19v-67c0 -3.33301 -2.16699 -5.66602 -6.5 -6.99902s-8.83301 -2 -13.5 -2h-27
c-14 0 -21 3.33301 -21 10v255z" />
    <glyph glyph-name="U" unicode="U" horiz-adv-x="376" 
d="M238 244l0.000976562 345.998h-22c-6.66699 0 -10 3.33301 -10 10v157c0 13.333 3.33301 20 10 20h118c6 0 9 -6.66699 9 -20v-157c0 -6.66699 -5 -10 -15 -10h-9v-404c0 -59.333 -12.167 -105.166 -36.5 -137.499s-53.5 -48.5 -87.5 -48.5
c-35.333 0 -66 16.833 -92 50.5s-39 80.834 -39 141.501v398h-21c-6.66699 0 -10 3.66699 -10 11v157c0 13.333 3.33301 20 10 20h129c6 0 9 -6.66699 9 -20v-158c0 -6 -5 -9 -15 -9h-11v-347c0 -18 4 -31.833 12 -41.5s17.667 -14.5 29 -14.5s21.166 4.83301 29.499 14.5
s12.5 23.5 12.5 41.5z" />
    <glyph glyph-name="V" unicode="V" horiz-adv-x="398" 
d="M143 0l-93.001 591.999h-4c-14.667 0 -22 6.33301 -22 19v146c0 8.66699 1.33301 14.334 4 17.001s8.33398 4 17.001 4h115c14.667 0 22 -6.66699 22 -20v-147c0 -12.667 -7.33301 -19 -22 -19h-21l63 -379l62 379h-21c-13.333 0 -20 6.33301 -20 19v147
c0 13.333 6.66699 20 20 20h114c8.66699 0 14.167 -1.16699 16.5 -3.5s3.5 -7.83301 3.5 -16.5v-147v-12c-1.33301 -4.66699 -6.33301 -7 -15 -7h-8l-95 -592h-116z" />
    <glyph glyph-name="W" unicode="W" horiz-adv-x="638" 
d="M365 589l62 -376.001l61 377h-12c-13.333 0 -20 7 -20 21v147c0 8 1.33301 13.333 4 16s8 4 16 4h107c8.66699 0 14.167 -1.16699 16.5 -3.5s3.5 -7.83301 3.5 -16.5v-147c0 -14.667 -5 -22 -15 -22h-10l-91 -589h-117l-50 308l-48 -308h-113l-95 589h-5
c-12.667 0 -19 7.33301 -19 22v146c0 8.66699 1.33301 14.334 4 17.001s8 4 16 4h106c13.333 0 20 -6.66699 20 -20v-147c0 -14.667 -6.33301 -22 -19 -22h-10l57 -377l64 378h-16c-12.667 0 -19 7 -19 21v147c0 13.333 6.33301 20 19 20h118
c8.66699 0 14.167 -1.16699 16.5 -3.5s3.5 -7.83301 3.5 -16.5v-147c0 -7.33301 -1.5 -12.833 -4.5 -16.5s-8.16699 -5.5 -15.5 -5.5h-15z" />
    <glyph glyph-name="X" unicode="X" horiz-adv-x="507" 
d="M179 589l74.001 -106.001l72 106h-10c-13.333 0 -20 7.33301 -20 22v146c0 8.66699 1.33301 14.334 4 17.001s8 4 16 4h137c14 0 21 -6.66699 21 -20v-147c0 -14.667 -7 -22 -21 -22h-10l-131 -201l133 -200h11c12.667 0 19 -6.33301 19 -19v-148
c0 -8.66699 -1.5 -14.167 -4.5 -16.5s-8.83301 -3.5 -17.5 -3.5h-137c-13.333 0 -20 6.66699 -20 20v148c0 12.667 6.66699 19 20 19h12l-74 107l-74 -107h15c6.66699 0 11 -1.33301 13 -4s3 -8 3 -16v-147c0 -8.66699 -1.33301 -14.334 -4 -17.001s-8.33398 -4 -17.001 -4
h-137c-13.333 0 -20 6.66699 -20 20v148c0 13.333 6.66699 20 20 20h10l133 201l-133 200h-10c-13.333 0 -20 7.33301 -20 22v146c0 8.66699 1.33301 14.334 4 17.001s8 4 16 4h137c13.333 0 20 -6.66699 20 -20v-147c0 -14.667 -6.66699 -22 -20 -22h-10z" />
    <glyph glyph-name="Y" unicode="Y" horiz-adv-x="505" 
d="M297 363v-174.999h22c12.667 0 19 -6.66699 19 -20v-147c0 -8.66699 -1.33301 -14.334 -4 -17.001s-8 -4 -16 -4h-126c-13.333 0 -20 6.66699 -20 20v148c0 13.333 6.66699 20 20 20h21v175l-140 226h-18c-13.333 0 -20 7 -20 21v147c0 8.66699 1.33301 14.334 4 17.001
s8 4 16 4h137c13.333 0 20 -6.66699 20 -20v-148c0 -14 -6.66699 -21 -20 -21h-10l74 -106l74 106h-16c-10 0 -15 7.33301 -15 22v146c0 9.33301 1.16699 15.166 3.5 17.499s7.5 3.5 15.5 3.5h138c14.667 0 22 -6.66699 22 -20v-147c0 -14.667 -7.33301 -22 -22 -22h-19z
" />
    <glyph glyph-name="Z" unicode="Z" horiz-adv-x="335" 
d="M216 590l-79 -0.00195312c-13.333 0 -20 -6.66699 -20 -20v-82c0 -14 -3.33301 -21 -10 -21h-61c-6.66699 0 -10 7 -10 21v270c0 13.333 5 20 15 20h235c14 0 21 -6.66699 21 -20v-211c0 -6.66699 -12.167 -29.5 -36.5 -68.5l-60.5 -97l-44.5 -73
c-13.667 -23 -26.667 -43.833 -39 -62.5s-20 -30.667 -23 -36s-4.5 -9.66602 -4.5 -12.999c0 -5.33301 5 -8 15 -8h84c8 0 13.167 1.5 15.5 4.5s3.5 8.5 3.5 16.5v80c0 10 5.33301 15 16 15h50c10.667 0 16 -4.66699 16 -14v-271c0 -13.333 -7.33301 -20 -22 -20h-229
c-13.333 0 -20 6.33301 -20 19v214c0 10.667 7.66699 28.834 23 54.501s35.333 57.167 60 94.5l99 169l12.5 18.5c4.33301 6.33301 6.5 10.833 6.5 13.5c0 4.66699 -4.33301 7 -13 7z" />
    <glyph glyph-name="bracketleft" unicode="[" horiz-adv-x="88" 
d="M34 631v-484h46v-141c0 -1.33301 -0.666992 -2.5 -2 -3.5s-2.33301 -1.83301 -3 -2.5h-63c-2.66699 2.66699 -4 4.66699 -4 6v766c0 1.33301 0.5 2.5 1.5 3.5l2.5 2.5h63c3.33301 -2.66699 5 -4.66699 5 -6v-141h-46z" />
    <glyph glyph-name="backslash" unicode="\" horiz-adv-x="550" 
d="M482 0l-442 673h40l442 -673h-40z" />
    <glyph glyph-name="bracketright" unicode="]" horiz-adv-x="88" 
d="M54 147v483.999h-47v141c0 2 0.666992 3.33301 2 4s2.33301 1.33398 3 2.00098h63c2.66699 -2.66699 4 -4.66699 4 -6v-766c0 -1.33301 -0.5 -2.5 -1.5 -3.5l-2.5 -2.5h-63c-3.33301 2.66699 -5 4.66699 -5 6v141h47z" />
    <glyph glyph-name="underscore" unicode="_" horiz-adv-x="370" 
d="M4 -79l-1 71h363v-71h-362z" />
    <glyph glyph-name="a" unicode="a" horiz-adv-x="308" 
d="M206 0c-9.33301 0 -16 2.66699 -20 8s-7 11 -9 17c-6 -5.33301 -13.333 -10.833 -22 -16.5s-18.667 -8.5 -30 -8.5h-32c-24 -0 -41 12.333 -51 37s-15 60 -15 106c0 50 4.16699 85 12.5 105s26.5 39.5 54.5 58.5l64 43.5c9.33301 9.33301 14 23 14 41
c0 20.667 -10.667 31 -32 31c-10 0 -18.5 -3.16699 -25.5 -9.5s-10.5 -15.833 -10.5 -28.5v-22c0 -6 -0.833008 -9.83301 -2.5 -11.5s-6.16699 -2.5 -13.5 -2.5h-36c-12.667 0 -19 3 -19 9c0 1.33301 -0.833008 14.833 -2.5 40.5s-2.5 43.167 -2.5 52.5
c0 36 11 63.5 33 82.5s49.333 28.5 82 28.5c30.667 0 56.5 -8.83301 77.5 -26.5s31.5 -40.5 31.5 -68.5v-297h5c14 0 21 -7.33301 21 -22v-147h-72zM182 280l-39 -21.001c-26 -19.333 -39 -37.666 -39 -54.999c0 -16.667 3 -28.667 9 -36s15.667 -11 29 -11
c16.667 0 27.5 3.33301 32.5 10s7.5 25 7.5 55v58z" />
    <glyph glyph-name="b" unicode="b" horiz-adv-x="293" 
d="M105 529c0 -3.33301 0.170898 -6.00098 0.503906 -8.00098s0.833008 -3 1.5 -3c8.66699 10.667 18.5 20.334 29.5 29.001s22.833 13 35.5 13c23.333 0 44.166 -6.83301 62.499 -20.5s27.5 -35.834 27.5 -66.501v-386c0 -30 -6.83301 -51.833 -20.5 -65.5
s-37.167 -20.5 -70.5 -20.5c-14.667 0 -27.334 5.33301 -38.001 16s-18.334 19 -23.001 25c-6.66699 -9.33301 -13.834 -18.666 -21.501 -27.999s-16.167 -14 -25.5 -14c-11.333 -0 -18.333 1.33301 -21 4s-4 8 -4 16v662c-6 -0.666992 -11.833 -0.666992 -17.5 0
s-8.5 5.33398 -8.5 14.001v62c0 15.333 7.33301 21.666 22 18.999c3.33301 -0.666992 9.33301 -1 18 -1c15.333 0.666992 26 1 32 1c14 0 21 -6.33301 21 -19v-229zM195.004 380.999c0 14 -3.83301 25.167 -11.5 33.5s-17.167 12.5 -28.5 12.5s-21 -4 -29 -12
s-12 -19.333 -12 -34v-203c0 -14.667 4 -26 12 -34s17.333 -12 28 -12c11.333 0 21 4 29 12s12 19.333 12 34v203z" />
    <glyph glyph-name="c" unicode="c" horiz-adv-x="266" 
d="M237 319c0 -7.33301 -1 -11.667 -3 -13s-8 -2 -18 -2h-25c-9.33301 0 -15 1 -17 3s-3 9.66699 -3 23v35c0 14 -3.5 25.167 -10.5 33.5s-15.5 12.5 -25.5 12.5s-18.5 -3.83301 -25.5 -11.5s-10.5 -19.167 -10.5 -34.5v-174c0 -14.667 3.5 -25.834 10.5 -33.501
s15.5 -11.5 25.5 -11.5s18.5 3.83301 25.5 11.5s10.5 18.834 10.5 33.501v52c0 6.66699 6.66699 10 20 10h25c14 0 21 -3.33301 21 -10v-158c0 -28 -10.5 -49.333 -31.5 -64s-46.5 -22 -76.5 -22c-29.333 0 -54.5 7.33301 -75.5 22s-31.5 35.667 -31.5 63v389
c0 27.333 10.5 48.333 31.5 63s46.5 22 76.5 22c28.667 0 53.667 -7.5 75 -22.5s32 -35.833 32 -62.5v-154z" />
    <glyph glyph-name="d" unicode="d" horiz-adv-x="293" 
d="M173 381c0 14.667 -3.99902 26 -11.999 34s-17.667 12 -29 12s-21 -4 -29 -12s-12 -19.333 -12 -34v-203c0 -14 4.16699 -25.167 12.5 -33.5s18.166 -12.5 29.499 -12.5c14.667 0 25 4.66699 31 14s9 20 9 32v203zM181.001 529l0.000976562 151.996h-12
c-4.66699 0 -8.16699 1 -10.5 3s-3.5 6.33301 -3.5 13v65c0 6.66699 0.833008 10.667 2.5 12s4.66699 2.33301 9 3s6.83301 1 7.5 1h72v-630c3.33301 0 7 -0.166992 11 -0.5s7 -1.66602 9 -3.99902s3.16699 -6 3.5 -11s0.5 -10.167 0.5 -15.5v-98
c0 -1.33301 -0.166992 -3.83301 -0.5 -7.5s-1.16602 -6.16699 -2.49902 -7.5s-3.33301 -2.16602 -6 -2.49902s-5.33398 -0.833008 -8.00098 -1.5h-53c-10.667 0 -16.834 5.33301 -18.501 16s-3.16699 19.334 -4.5 26.001c-8 -9.33301 -17.167 -18.5 -27.5 -27.5
s-21.5 -13.5 -33.5 -13.5c-26.667 0 -48.667 4.66699 -66 14s-26 33.333 -26 72v386c0 30.667 9.16699 52.834 27.5 66.501s39.5 20.5 63.5 20.5c12.667 0 24.667 -4.33301 36 -13l28 -29c1.33301 4 2 7.66699 2 11z" />
    <glyph glyph-name="e" unicode="e" horiz-adv-x="267" 
d="M240 278c0 -10 -6.66699 -15 -20 -15h-101c-10.667 0 -16 -5.33301 -16 -16v-59c0 -14 3.5 -24.5 10.5 -31.5s15.167 -10.5 24.5 -10.5c24.667 0 37 14 37 42v15c0 9.33301 1.5 15 4.5 17s8.16699 3 15.5 3h25c13.333 0 20 -7 20 -21v-110c0 -28 -11 -50.167 -33 -66.5
s-48 -24.5 -78 -24.5c-28 0 -51.833 7.66699 -71.5 23s-29.5 38 -29.5 68v384c0 26.667 10.833 47.667 32.5 63s47.167 23 76.5 23c28 0 52.167 -7.33301 72.5 -22s30.5 -36 30.5 -64v-198zM154 314c14 0 21 5.33105 21 15.998v19c0 20.667 -3.5 36.834 -10.5 48.501
s-15.167 17.5 -24.5 17.5c-10 0 -18.5 -5.66699 -25.5 -17s-10.5 -27.666 -10.5 -48.999v-19c0 -10.667 4.66699 -16 14 -16h36z" />
    <glyph glyph-name="f" unicode="f" horiz-adv-x="210" 
d="M157 20c0 -13.333 -7 -20 -21 -20h-91c-14 0 -21 6.66699 -21 20v117c0 6.66699 5.33301 10 16 10h10v255h-5c-14 0 -21 7 -21 21v118c0 12.667 7 19 21 19h5v147c0 28 8.83301 46.833 26.5 56.5s39.167 14.5 64.5 14.5c20 0 32.667 -1 38 -3s8 -6 8 -12v-132h-36
c-13.333 0 -20 -6.66699 -20 -20v-41c0 -7.33301 3.33301 -11 10 -11h16c13.333 0 20 -6.66699 20 -20v-111c0 -13.333 -6.66699 -20 -20 -20h-26v-260h5c14 0 21 -7 21 -21v-107z" />
    <glyph glyph-name="g" unicode="g" horiz-adv-x="302" 
d="M284 622c-9.33301 0 -16.999 -0.50293 -22.999 -1.50293s-12.667 -2.66699 -20 -5s-14.166 -8.16602 -20.499 -17.499s-9.5 -19 -9.5 -29c0 -18 6.83301 -30 20.5 -36s20.5 -19.667 20.5 -41v-276c0 -23.333 -10.167 -39.333 -30.5 -48s-38.5 -13 -54.5 -13
c-3.33301 0 -9.5 2 -18.5 6s-15.167 5.66699 -18.5 5c-5.33301 0 -10.5 -5.33301 -15.5 -16s-7.5 -24.667 -7.5 -42c0 -20.667 2.66699 -34.334 8 -41.001s20.666 -10 45.999 -10c37.333 0 64.666 -7.16699 81.999 -21.5s26 -52.833 26 -115.5
c0 -64.667 -7.33301 -104.334 -22 -119.001s-42.667 -22 -84 -22c-56 0 -90.333 8.33301 -103 25s-19 51.334 -19 104.001c0 27.333 2 48.333 6 63c4.66699 10 9.66699 20 15 30c0 1.33301 -5 6.33301 -15 15s-15 26.334 -15 53.001c0 22.667 5.33301 43.334 16 62.001
l38 52c0 2.66699 -2.33301 5.66699 -7 9s-7 10.333 -7 21v268c0 31.333 19.333 54.333 58 69s58 30.334 58 47.001c0 26 7 47.667 21 65s28.667 26 44 26c13.333 0 21.833 -1 25.5 -3s5.5 -6 5.5 -12v-51zM107.001 -9.00293v-51.002c0 -21.333 2 -37.666 6 -48.999
s15.667 -17 35 -17s33.333 5.83301 42 17.5s13 25.167 13 40.5c0 20 -2.33301 31.833 -7 35.5s-16.667 7.83398 -36 12.501zM130.001 299.995c0 -24.667 10.999 -37 32.999 -37c8 0 15.5 3.16699 22.5 9.5s10.5 15.5 10.5 27.5v117c0 10.667 -3.16699 19.167 -9.5 25.5
s-14.166 9.5 -23.499 9.5c-8 0 -15.5 -3.16699 -22.5 -9.5s-10.5 -14.833 -10.5 -25.5v-117z" />
    <glyph glyph-name="h" unicode="h" horiz-adv-x="335" 
d="M130 352l-0.00195312 -205.002h5c13.333 0 20 -6.66699 20 -20v-107c0 -13.333 -6.66699 -20 -20 -20h-91c-14 0 -21 6.66699 -21 20v107c0 13.333 5.33301 20 16 20h10v515c0 12.667 -5 19 -15 19c-4.66699 0 -7.5 1.33301 -8.5 4s-1.83301 5.33398 -2.5 8.00098v65
c0 13.333 7 20 21 20h66c13.333 0 20 -6.66699 20 -20v-245c8.66699 10.667 18.834 21.167 30.501 31.5s26.167 15.5 43.5 15.5c18.667 0 36.834 -10.167 54.501 -30.5s26.5 -38.833 26.5 -55.5v-327h5c14 0 21 -6.66699 21 -20v-107c0 -7.33301 -1.5 -12.5 -4.5 -15.5
s-8.5 -4.5 -16.5 -4.5h-92c-12.667 0 -19 6.66699 -19 20v107c0 13.333 5 20 15 20h9v205c0 18.667 -3.5 33.334 -10.5 44.001s-15.5 16 -25.5 16c-24.667 0 -37 -20 -37 -60z" />
    <glyph glyph-name="i" unicode="i" horiz-adv-x="177" 
d="M111 553c12.667 0 19 -6.66699 19 -20v-387h6c14 0 21 -6.66699 21 -20v-106c0 -13.333 -7 -20 -21 -20h-90c-14 0 -21 6.66699 -21 20v106c0 13.333 5.33301 20 16 20h10v251c0 7.33301 -3.66699 11 -11 11c-10 0 -15 5 -15 15v111c0 12.667 7 19 21 19h65zM71 745h39
c13.333 0 20 -6.66699 20 -20v-76c0 -12.667 -6.66699 -19 -20 -19h-39c-13.333 0 -20 6.33301 -20 19v76c0 13.333 6.66699 20 20 20z" />
    <glyph glyph-name="j" unicode="j" horiz-adv-x="178" 
d="M71 -37l0.000976562 436.001c0 8 -3.33301 12 -10 12c-10 0 -15 4.66699 -15 14v112c0 13.333 7 20 21 20h65c12.667 0 19 -7.33301 19 -22v-679c0 -18.667 -6.83301 -35.167 -20.5 -49.5s-28.834 -21.5 -45.501 -21.5h-44c-16.667 0 -25 9.66699 -25 29v116h26
c7.33301 0 14 2.66699 20 8s9 13.666 9 24.999zM79.001 744.001h46c12.667 0 19 -6.66699 19 -20v-76c0 -8 -1.16699 -13.167 -3.5 -15.5s-7.83301 -3.5 -16.5 -3.5h-45c-13.333 0 -20 6.33301 -20 19v76c0 13.333 6.66699 20 20 20z" />
    <glyph glyph-name="k" unicode="k" horiz-adv-x="351" 
d="M305 147h22v-126c0 -14 -6.33301 -21 -19 -21h-92c-13.333 0 -20 6.66699 -20 20v107c0 8 2.83301 13 8.5 15s11.5 3.66699 17.5 5l-61 115l-31 -26v-89h5c13.333 0 20 -6.66699 20 -20v-107c0 -13.333 -6.66699 -20 -20 -20h-91c-14 0 -21 6.66699 -21 20v107
c0 13.333 7 20 21 20h5v474c0 9.33301 -1 15 -3 17s-6 3 -12 3h-11v117c0 13.333 7 20 21 20h66c13.333 0 20 -6.66699 20 -20v-431l85 83h-10c-6.66699 0 -10 5 -10 15v112c0 13.333 6.66699 20 20 20h92c13.333 0 20 -6.66699 20 -20v-112
c0 -6.66699 -1.33301 -10.667 -4 -12s-8.66699 -2 -18 -2l-92 -95z" />
    <glyph glyph-name="l" unicode="l" horiz-adv-x="171" 
d="M129 147h5c13.333 0 20 -6.66699 20 -20v-107c0 -13.333 -6.66699 -20 -20 -20h-94c-14 0 -21 6.66699 -21 20v107c0 13.333 7 20 21 20h5v474c0 10 -1 15.833 -3 17.5s-6.33301 2.5 -13 2.5h-10v117c0 13.333 7 20 21 20h69c13.333 0 20 -6.66699 20 -20v-611z" />
    <glyph glyph-name="m" unicode="m" horiz-adv-x="489" 
d="M282 146l-0.00195312 205.001c0 17.333 4.16699 31.5 12.5 42.5s17.833 16.5 28.5 16.5c10 0 18.333 -4.83301 25 -14.5s10 -24.5 10 -44.5v-205h-5c-12.667 0 -19 -6.33301 -19 -19v-106c0 -13.333 6.33301 -20 19 -20h89c7.33301 0 12.5 1.5 15.5 4.5s4.5 8.5 4.5 16.5
v105c0 12.667 -6.66699 19 -20 19h-4v326c0 22 -8.83301 41.833 -26.5 59.5s-38.167 26.5 -61.5 26.5c-20 0 -35.667 -4.83301 -47 -14.5s-21 -19.5 -29 -29.5c-7.33301 10 -16.166 19.833 -26.499 29.5s-25.166 14.5 -44.499 14.5c-18.667 0 -33.667 -4.83301 -45 -14.5
s-21 -19.5 -29 -29.5v24c0 13.333 -6.66699 20 -20 20h-65c-14 0 -21 -6.66699 -21 -20v-107c0 -7.33301 1.5 -12.5 4.5 -15.5s8.5 -4.5 16.5 -4.5h5v-265h-5c-14 0 -21 -6.33301 -21 -19v-106c0 -7.33301 1.5 -12.5 4.5 -15.5s8.5 -4.5 16.5 -4.5h90
c12.667 0 19 6.66699 19 20v106c0 12.667 -6.33301 19 -19 19h-5v205c0 19.333 3.66699 34.166 11 44.499s16 15.5 26 15.5c24.667 0 37 -20 37 -60v-205h-5c-12.667 0 -19 -6.33301 -19 -19v-107c0 -13.333 6.33301 -20 19 -20h92c12 0 18 6.66699 18 20v107
c0 12.667 -6 19 -18 19h-6h-2z" />
    <glyph glyph-name="n" unicode="n" horiz-adv-x="334" 
d="M282 351l0.000976562 34.001c0 48.667 -4.83301 89.667 -14.5 123s-30.834 50 -63.501 50c-18.667 0 -33.667 -4.83301 -45 -14.5s-21.333 -19.5 -30 -29.5v24c0 13.333 -6.66699 20 -20 20h-65c-14 0 -21 -6.66699 -21 -20v-107c0 -7.33301 1.5 -12.5 4.5 -15.5
s8.5 -4.5 16.5 -4.5h5v-265h-5c-14 0 -21 -6.33301 -21 -19v-106c0 -7.33301 1.5 -12.5 4.5 -15.5s8.5 -4.5 16.5 -4.5h90c12.667 0 19 6.66699 19 20v106c0 12.667 -6.33301 19 -19 19h-5v205c0 19.333 3.66699 34.166 11 44.499s16 15.5 26 15.5c24.667 0 37 -20 37 -60
v-205h-5c-12 0 -18 -6.33301 -18 -19v-107c0 -13.333 6 -20 18 -20h92c12.667 0 19 6.66699 19 20v107c0 12.667 -6.33301 19 -19 19h-6z" />
    <glyph glyph-name="o" unicode="o" horiz-adv-x="264" 
d="M241 476l-0.000976562 -384c0 -28 -11.333 -50.167 -34 -66.5s-49 -24.5 -79 -24.5c-28.667 0 -53.167 7.83301 -73.5 23.5s-30.5 38.167 -30.5 67.5v384c0 26.667 11.167 47.667 33.5 63s48.5 23 78.5 23c28.667 0 53.334 -7.5 74.001 -22.5s31 -36.167 31 -63.5z
M97.999 349l-1 -151.002c0 -16 3.33301 -28 10 -36s14.667 -12 24 -12c10 0 18.667 4.33301 26 13s11 20.334 11 35.001v151c0 44 -11.667 66 -35 66c-9.33301 0 -17.5 -5.66699 -24.5 -17s-10.5 -27.666 -10.5 -48.999z" />
    <glyph glyph-name="p" unicode="p" horiz-adv-x="299" 
d="M186 559c24 0 44.334 -8.99902 61.001 -26.999s25 -42 25 -72v-355c0 -36.667 -9.5 -63.334 -28.5 -80.001s-37.833 -25 -56.5 -25s-32.834 4.33301 -42.501 13s-17.5 17.667 -23.5 27v-163h6c10 0 15 -6.66699 15 -20v-56c0 -14 -6.66699 -21 -20 -21h-71
c-14 0 -21 7 -21 21v56c0 13.333 7 20 21 20h5v535h-5c-14 0 -21 6.66699 -21 20v107c0 13.333 7 20 21 20h51c13.333 0 20 -6.66699 20 -20v-21c4 9.33301 10.167 18.5 18.5 27.5s23.5 13.5 45.5 13.5zM209.001 374.001c0 18.667 -4.16797 33.5 -12.501 44.5
s-18.166 16.5 -29.499 16.5s-21.166 -5.33301 -29.499 -16s-12.5 -25.667 -12.5 -45v-176c0 -20.667 4 -36.667 12 -48s18 -17 30 -17c11.333 0 21.166 5.66699 29.499 17s12.5 27.333 12.5 48v176z" />
    <glyph glyph-name="q" unicode="q" horiz-adv-x="295" 
d="M34 460c0 30.667 8.16895 54.832 24.502 72.499s36.833 26.5 61.5 26.5c21.333 0 36.166 -4.33301 44.499 -13s14.833 -18 19.5 -28v21c0 13.333 6.66699 20 20 20h46v-682h5c13.333 0 20 -6.66699 20 -20v-56c0 -14 -6.66699 -21 -20 -21h-71c-13.333 0 -20 7 -20 21v56
c0 13.333 5 20 15 20h6v163c-6 -9.33301 -13.833 -18.333 -23.5 -27s-23.834 -13 -42.501 -13s-37.5 8.33301 -56.5 25s-28.5 43.334 -28.5 80.001v355zM181.002 369.998c0 17.333 -4.5 31.166 -13.5 41.499s-19.5 15.5 -31.5 15.5c-11.333 0 -20.666 -4.66699 -27.999 -14
s-11 -23.666 -11 -42.999v-173c0 -20.667 4 -36.667 12 -48s18 -17 30 -17c11.333 0 21.166 5.66699 29.499 17s12.5 27.333 12.5 48v173z" />
    <glyph glyph-name="r" unicode="r" horiz-adv-x="274" 
d="M139 20c0 -13.333 -6.33301 -19.999 -19 -19.999h-75c-14.667 0 -22 6.66699 -22 20v107c0 13.333 7.33301 20 22 20h4v264h-4c-14.667 0 -22 6.66699 -22 20v107c0 13.333 7.33301 20 22 20h39c14 0 21 -6.66699 21 -20v-27c6.66699 10.667 15 21.167 25 31.5
s23.667 15.5 41 15.5c20.667 0 39.667 -7.16699 57 -21.5s26 -34.5 26 -60.5v-120c0 -14 -6.66699 -21 -20 -21h-18c-13.333 0 -20 6.66699 -20 20v20c0 19.333 -4 32.666 -12 39.999s-19.667 11 -35 11c-7.33301 0 -14.833 -3.66699 -22.5 -11s-11.5 -20.333 -11.5 -39
v-229h5c12.667 0 19 -6.66699 19 -20v-107z" />
    <glyph glyph-name="s" unicode="s" horiz-adv-x="278" 
d="M161 186c0 12 -22.835 33.998 -68.502 65.998s-68.5 65.667 -68.5 101v124c0 18 8 35 24 51s36.667 24 62 24c20.667 0 35 -4 43 -12s14 -16 18 -24v17c0 12.667 6.33301 19 19 19h40c13.333 0 20 -6.66699 20 -20v-146c0 -13.333 -6.33301 -20 -19 -20h-36
c-10 0 -15 7 -15 21c0 23.333 -11.667 35 -35 35c-11.333 0 -19.166 -3 -23.499 -9s-6.5 -14 -6.5 -24v-23c0 -11.333 22.5 -32.666 67.5 -63.999s67.5 -65 67.5 -101v-114c0 -29.333 -9.16699 -51.166 -27.5 -65.499s-37.166 -21.5 -56.499 -21.5
c-17.333 0 -30.333 4 -39 12s-16 16 -22 24v-16c0 -7.33301 -1.5 -12.5 -4.5 -15.5s-8.5 -4.5 -16.5 -4.5h-39c-14 0 -21 6.66699 -21 20v146c0 13.333 7 20 21 20h34c10.667 0 16 -5 16 -15c0 -15.333 2.83301 -26 8.5 -32s14.5 -9 26.5 -9
c9.33301 0 16.833 1.66699 22.5 5s8.5 9.33301 8.5 18v33z" />
    <glyph glyph-name="t" unicode="t" horiz-adv-x="210" 
d="M95 746h27.001v-181h44c10 0 15 -7 15 -21v-115c0 -8 -0.5 -12.5 -1.5 -13.5s-4.16699 -1.5 -9.5 -1.5h-30c-6.66699 0 -10 -7.33301 -10 -22v-208c0 -12 3 -21.167 9 -27.5s13 -9.5 21 -9.5h27v-147h-74c-18.667 0 -34.167 6.5 -46.5 19.5s-18.5 29.833 -18.5 50.5v328
c0 10.667 -5 16 -15 16h-10v151c9.33301 6 23.666 19.167 42.999 39.5s29 67.5 29 141.5z" />
    <glyph glyph-name="u" unicode="u" horiz-adv-x="329" 
d="M46 410l-0.000976562 -275c0 -36.667 6 -68.334 18 -95.001s31.667 -40 59 -40c26 0 44.333 4.83301 55 14.5s19 19.5 25 29.5v-24c0 -7.33301 0.833008 -12.5 2.5 -15.5s5.83398 -4.5 12.501 -4.5h66c13.333 0 20 6.66699 20 20v107c0 8 -0.833008 13.333 -2.5 16
s-6.16699 4 -13.5 4h-4v390c0 14 -5.33301 21 -16 21l-75 -1c-6.66699 0 -11 -1.33301 -13 -4s-3 -8 -3 -16v-106c0 -13.333 6.66699 -20 20 -20h5v-204c0 -19.333 -3.66699 -34.166 -11 -44.499s-16 -15.5 -26 -15.5c-24.667 0 -37 20 -37 60v331
c0 13.333 -5.33301 20 -16 20h-72c-12.667 0 -19 -6.66699 -19 -20v-107c0 -14 6.33301 -21 19 -21h6z" />
    <glyph glyph-name="v" unicode="v" horiz-adv-x="329" 
d="M295 559c13.333 0 20 -6.66699 20 -20v-107c0 -13.333 -6.66699 -20 -20 -20h-5l-83 -412h-79l-82 412h-5c-14 0 -21 6.66699 -21 20v107c0 13.333 7 20 21 20h91c13.333 0 20 -6.33301 20 -19v-108c0 -13.333 -6.66699 -20 -20 -20h-15l41 -247h20l39 247h-14
c-13.333 0 -20 6.66699 -20 20v107c0 13.333 6.66699 20 20 20h92z" />
    <glyph glyph-name="w" unicode="w" horiz-adv-x="502" 
d="M246 205l-42 -205h-84l-80 412h-5c-14 0 -21 6.66699 -21 20v107c0 13.333 7 20 21 20h91c13.333 0 20 -6.33301 20 -19v-108c0 -13.333 -6.66699 -20 -20 -20h-15l43 -247h18l38 247h-17c-13.333 0 -20 6.66699 -20 20v107c0 13.333 6.66699 20 20 20h114
c13.333 0 20 -6.33301 20 -19v-108c0 -13.333 -6.66699 -20 -20 -20h-21l42 -247h15l43 247h-14c-13.333 0 -20 6.66699 -20 20v107c0 13.333 6.66699 20 20 20h91c14 0 21 -6.66699 21 -20v-107c0 -7.33301 -1.5 -12.5 -4.5 -15.5s-8.5 -4.5 -16.5 -4.5h-5l-82 -412h-79
l-43 205h-8z" />
    <glyph glyph-name="x" unicode="x" horiz-adv-x="333" 
d="M129 412l40 -71l39 69h-9c-13.333 0 -20 6.66699 -20 20v106c0 13.333 6.66699 20 20 20h91c13.333 0 20 -6.33301 20 -19v-107c0 -12.667 -6.66699 -19 -20 -19h-5l-83 -135l83 -131h5c13.333 0 20 -6.33301 20 -19v-107c0 -12.667 -6.66699 -19 -20 -19h-91
c-13.333 0 -20 6.66699 -20 20v106c0 13.333 6.66699 20 20 20h6l-37 65l-39 -66h5c13.333 0 20 -6.33301 20 -19v-107c0 -12.667 -6.66699 -19 -20 -19h-90c-13.333 0 -20 6.66699 -20 20v106c0 13.333 6.66699 20 20 20h10l78 130l-78 135h-10
c-13.333 0 -20 6.66699 -20 20v106c0 13.333 6.66699 20 20 20h90c13.333 0 20 -6.33301 20 -19v-107c0 -12.667 -6.66699 -19 -20 -19h-5z" />
    <glyph glyph-name="y" unicode="y" horiz-adv-x="339" 
d="M114 -223c-27.333 0 -47.333 6.66699 -60 20s-19 32 -19 56v77c0 6.66699 3.33301 10 10 10h25c6.66699 0 10 -3.33301 10 -10c-0.666992 -4.66699 -1 -9 -1 -13c0 -12 2.16699 -22.167 6.5 -30.5s12.833 -12.5 25.5 -12.5c12 0 20.167 4.33301 24.5 13s6.5 19 6.5 31
c-0.666992 9.33301 -1 15.333 -1 18c0 4 -7.16699 41.5 -21.5 112.5l-43 213c-14.333 71 -21.5 108.167 -21.5 111.5c0 5.33301 -0.333008 11 -1 17s-2 12.333 -4 19h-10c-10.667 0 -16 3.33301 -16 10v117c0 13.333 7 20 21 20h91c14 0 21 -6.66699 21 -20v-112
c0 -10 -7 -15 -21 -15h-15l46 -256h10l46 256h-16c-13.333 0 -20 5 -20 15v112c0 13.333 6.66699 20 20 20h92c13.333 0 20 -6.66699 20 -20v-112c0 -10.667 -5 -16 -15 -16h-10l-99 -579c-4 -16 -12.5 -28.667 -25.5 -38s-31.5 -14 -55.5 -14z" />
    <glyph glyph-name="z" unicode="z" horiz-adv-x="279" 
d="M23 174l172 236h-103c-12 0 -18 -4.66699 -18 -14v-45c0 -10 -4.33301 -15 -13 -15h-14c-9.33301 0 -14 5 -14 15v190c0 8.66699 1 13.667 3 15s6.33301 2 13 2h196c8.66699 0 13.667 -0.5 15 -1.5s2 -5.5 2 -13.5v-153l-172 -242h108c10 0 15 4.66699 15 14v41
c0 6.66699 0.5 11.5 1.5 14.5s5.5 4.5 13.5 4.5h12c6.66699 0 10.5 -0.833008 11.5 -2.5s1.5 -7.16699 1.5 -16.5v-183c0 -13.333 -5.66699 -20 -17 -20h-191c-14.667 0 -22 6.66699 -22 20v154z" />
    <glyph glyph-name="braceleft" unicode="{" horiz-adv-x="112" 
d="M32 429v284.999c0 20.667 3.16699 36.5 9.5 47.5s15.833 16.5 28.5 16.5h29c3.33301 -2.66699 5 -4.66699 5 -6v-134c0 -4.66699 -2.33301 -7 -7 -7h-18c-8.66699 0 -14.334 -3.16699 -17.001 -9.5s-4 -14.5 -4 -24.5v-160c0 -12.667 -2 -24.167 -6 -34.5
s-10 -17.166 -18 -20.499c16 -9.33301 24 -28.333 24 -57v-143c0 -10.667 1.33301 -19.167 4 -25.5s8.33398 -9.5 17.001 -9.5h18c2 0 3.5 -1 4.5 -3s1.83301 -3.33301 2.5 -4v-134c0 -1.33301 -0.666992 -2.5 -2 -3.5s-2.33301 -1.83301 -3 -2.5h-29
c-25.333 -0 -38 21.333 -38 64v271c0 11.333 -2.66699 21.833 -8 31.5s-12.666 14.5 -21.999 14.5c9.33301 0 16.666 5 21.999 15s8 21 8 33z" />
    <glyph glyph-name="bar" unicode="|" horiz-adv-x="113" 
d="M80 528v-635.001c0 -56.667 -3.66699 -85 -11 -85h-28c-3.33301 0 -6 6.5 -8 19.5s-3 35.167 -3 66.5v635c0 33.333 0.666992 56 2 68s4.33301 18 9 18h28c3.33301 0 6 -6.66699 8 -20s3 -35.666 3 -66.999z" />
    <glyph glyph-name="braceright" unicode="}" horiz-adv-x="112" 
d="M79 714l-0.00195312 -285c0 -12 2.5 -23 7.5 -33s12.5 -15 22.5 -15c-10 0 -17.5 -4.66699 -22.5 -14s-7.5 -20 -7.5 -32v-271c0 -20.667 -3 -36.5 -9 -47.5s-15.667 -16.5 -29 -16.5h-29c-3.33301 2.66699 -5 4.66699 -5 6v134
c0.666992 1.33301 1.33398 2.83301 2.00098 4.5s2.33398 2.5 5.00098 2.5h18c6.66699 0 11.834 2.33301 15.501 7s5.5 14 5.5 28v143c0 28.667 8 47.667 24 57c-8 3.33301 -14 10.166 -18 20.499s-6 21.833 -6 34.5v160c0 10.667 -1.33301 19 -4 25s-8.33398 9 -17.001 9
h-18c-4.66699 0 -7 2.33301 -7 7v134c0 2 0.666992 3.33301 2 4s2.33301 1.33398 3 2.00098h29c25.333 0 38 -21.333 38 -64z" />
    <glyph glyph-name="nonbreakingspace" unicode="&#xa0;" horiz-adv-x="500" 
 />
    <glyph glyph-name="copyright" unicode="&#xa9;" horiz-adv-x="438" 
d="M38 183v414c0 56.667 18.167 100.834 54.5 132.501s79.5 47.5 129.5 47.5s93.333 -15.833 130 -47.5s55 -75.834 55 -132.501v-414c0 -61.333 -17.167 -108 -51.5 -140s-76.166 -48 -125.499 -48c-50.667 0 -95.334 16.833 -134.001 50.5s-58 79.5 -58 137.5zM130 532
v-287c0 -18 9.16699 -32.167 27.5 -42.5s39.833 -15.5 64.5 -15.5s46.167 5 64.5 15s27.5 24.333 27.5 43v288c0 16.667 -9 29.5 -27 38.5s-39.667 13.5 -65 13.5c-24.667 0 -46.167 -4.66699 -64.5 -14s-27.5 -22.333 -27.5 -39zM223 292
c8.66699 0 14.333 2.83496 17 8.50195s4 13.5 4 23.5v30c0 6.66699 2.66699 10 8 10h18c8 0 12 -3.33301 12 -10v-16c0 -8 -0.166992 -15.833 -0.5 -23.5s-0.833008 -11.834 -1.5 -12.501c0 -26 -3.5 -48.333 -10.5 -67s-22.5 -28 -46.5 -28c-22 0 -37.5 6.66699 -46.5 20
s-13.5 25 -13.5 35v235c0 24 3.33301 40.333 10 49s18.334 13 35.001 13c10 0 17 -2.33301 21 -7s7 -10 9 -16c0.666992 5.33301 1.66699 10.333 3 15s3.66602 7 6.99902 7h22h8c1.33301 -1.33301 2 -4 2 -8v-115c0 -5.33301 -0.333008 -8.33301 -1 -9s-3.66699 -1 -9 -1
h-19c-4.66699 0 -7 3.33301 -7 10v16c0 5.33301 -2 10.666 -6 15.999s-9 8 -15 8c-5.33301 0 -9.83301 -2.16699 -13.5 -6.5s-5.5 -8.83301 -5.5 -13.5v-133c0 -20 6.33301 -30 19 -30z" />
    <glyph glyph-name="registered" unicode="&#xae;" horiz-adv-x="442" 
d="M38 183v414c0 56.667 18.167 100.834 54.5 132.501s79.5 47.5 129.5 47.5s93.333 -15.833 130 -47.5s55 -75.834 55 -132.501v-414c0 -61.333 -17.167 -108 -51.5 -140s-76.166 -48 -125.499 -48c-50.667 0 -95.334 16.833 -134.001 50.5s-58 79.5 -58 137.5zM130 532
v-287c0 -18 9.16699 -32.167 27.5 -42.5s39.833 -15.5 64.5 -15.5s46.167 5 64.5 15s27.5 24.333 27.5 43v288c0 16.667 -9 29.5 -27 38.5s-39.667 13.5 -65 13.5c-24.667 0 -46.167 -4.66699 -64.5 -14s-27.5 -22.333 -27.5 -39zM207 468
c-3.33301 -2.66699 -5 -4.66699 -5 -6v-48c0 -2 0.666992 -3.5 2 -4.5s2.33301 -1.5 3 -1.5h10c8 0 13.667 3 17 9s5 13 5 21c0 10 -2.5 17.5 -7.5 22.5s-10.5 7.5 -16.5 7.5h-8zM274 443c0 -11.333 -2.16699 -21.167 -6.5 -29.5s-12.166 -14.166 -23.499 -17.499
c11.333 0 19.166 -6.83301 23.499 -20.5s6.5 -29.5 6.5 -47.5c0 -9.33301 2.66699 -14 8 -14c4.66699 0 7 4.66699 7 14c0 6.66699 1.33301 10 4 10s4 -3.33301 4 -10v-42c0 -38 -10 -57 -30 -57c-8 0 -15.167 5 -21.5 15s-9.5 24 -9.5 42v77
c0 7.33301 -2.33301 12.166 -7 14.499s-13.667 3.5 -27 3.5v-75h9c3.33301 0 5 -2 5 -6v-62c0 -5.33301 -1.66699 -8 -5 -8h-51c-4 0 -6 3.33301 -6 10v62c0 2.66699 2 4 6 4h7v162h-7c-6 0 -9 3.33301 -9 10v61c0 4.66699 3 7 9 7l62 -1c21.333 0 35.333 -2.66699 42 -8
s10 -16 10 -32v-62z" />
    <glyph glyph-name=".null" unicode="&#xd7;" horiz-adv-x="0" 
 />
    <glyph glyph-name=".null" unicode="&#x141;" horiz-adv-x="0" 
 />
    <glyph glyph-name=".null" unicode="&#xfd;" horiz-adv-x="0" 
 />
    <glyph glyph-name="summation" unicode="&#x3a3;" horiz-adv-x="925" 
d="M365 589l62 -376.001l61 377h-12c-13.333 0 -20 7 -20 21v147c0 8 1.33301 13.333 4 16s8 4 16 4h107c8.66699 0 14.167 -1.16699 16.5 -3.5s3.5 -7.83301 3.5 -16.5v-147c0 -14.667 -5 -22 -15 -22h-10l-91 -589h-117l-50 308l-48 -308h-113l-95 589h-5
c-12.667 0 -19 7.33301 -19 22v146c0 8.66699 1.33301 14.334 4 17.001s8 4 16 4h106c13.333 0 20 -6.66699 20 -20v-147c0 -14.667 -6.33301 -22 -19 -22h-10l57 -377l64 378h-16c-12.667 0 -19 7 -19 21v147c0 13.333 6.33301 20 19 20h118
c8.66699 0 14.167 -1.16699 16.5 -3.5s3.5 -7.83301 3.5 -16.5v-147c0 -7.33301 -1.5 -12.833 -4.5 -16.5s-8.16699 -5.5 -15.5 -5.5h-15zM804 -0.000976562c-10.667 0 -17.835 3 -21.502 9s-6.5 11.333 -8.5 16c-5.33301 -5.33301 -12.166 -10.833 -20.499 -16.5
s-18.5 -8.5 -30.5 -8.5h-32c-25.333 0 -42.666 12 -51.999 36s-14 59.667 -14 107c0 50 4.16699 85 12.5 105s26.333 39.5 54 58.5l63.5 43.5c9.33301 9.33301 14 23 14 41c0 20.667 -10.667 31 -32 31c-10 0 -18.5 -3.16699 -25.5 -9.5s-10.5 -15.833 -10.5 -28.5v-22v-9
c-1.33301 -3.33301 -6.33301 -5 -15 -5h-37c-12.667 0 -19 3 -19 9c0 1.33301 -0.666992 13 -2 35s-2 41.333 -2 58c0 36 11 63.5 33 82.5s49.333 28.5 82 28.5c30.667 0 56.5 -8.83301 77.5 -26.5s31.5 -40.5 31.5 -68.5v-297h5c14 0 21 -7.33301 21 -22v-147h-72z
M778.999 279.999l-39 -21.001c-26 -19.333 -39 -37.666 -39 -54.999s3.16699 -29.5 9.5 -36.5s16.166 -10.5 29.499 -10.5c16.667 0 27.334 3.16699 32.001 9.5s7 24.833 7 55.5v58z" />
    <glyph glyph-name="endash" unicode="&#x2013;" horiz-adv-x="449" 
d="M62 255v73h319v-73h-319z" />
    <glyph glyph-name="emdash" unicode="&#x2014;" horiz-adv-x="676" 
d="M62 255v73h551v-73h-551z" />
    <glyph glyph-name="quoteleft" unicode="&#x2018;" 
d="M72 720l-4.99512 -36.002c16 0 27 -2.16699 33 -6.5s9 -13.833 9 -28.5c0 -13.333 -2.66699 -22.666 -8 -27.999s-15 -8 -29 -8c-10.667 0 -19.334 1.83301 -26.001 5.5s-10 13.834 -10 30.501c0 8.66699 0.166992 17 0.5 25s1.66602 18 3.99902 30s11.166 24 26.499 36
s24.666 16.667 27.999 14c-2.66699 -4 -6.83398 -9 -12.501 -15s-9.16699 -12.333 -10.5 -19z" />
    <glyph glyph-name="quoteright" unicode="&#x2019;" 
d="M68 644l5.00195 36.001c-14.667 0 -25.167 2.16699 -31.5 6.5s-9.5 13.5 -9.5 27.5c0 14.667 2.5 24.5 7.5 29.5s14.5 7.5 28.5 7.5s23.667 -2.66699 29 -8s8 -15 8 -29v-13c0 -13.333 -1.33301 -26.5 -4 -39.5s-11.834 -25.5 -27.501 -37.5s-24.834 -16.667 -27.501 -14
c-0.666992 0.666992 2.5 4.66699 9.5 12s11.167 14.666 12.5 21.999z" />
    <glyph glyph-name="quotedblleft" unicode="&#x201c;" horiz-adv-x="246" 
d="M72 720l-4.99512 -36.002c16 0 27 -2.16699 33 -6.5s9 -13.833 9 -28.5c0 -13.333 -2.66699 -22.666 -8 -27.999s-15 -8 -29 -8c-10.667 0 -19.334 1.83301 -26.001 5.5s-10 13.834 -10 30.501c0 8.66699 0.166992 17 0.5 25s1.66602 18 3.99902 30s11.166 24 26.499 36
s24.666 16.667 27.999 14c-2.66699 -4 -6.83398 -9 -12.501 -15s-9.16699 -12.333 -10.5 -19zM176.005 719.998l-4.99902 -36c15.333 0 26 -2.16699 32 -6.5s9 -13.833 9 -28.5c0 -10.667 -1.83301 -19.334 -5.5 -26.001s-13.834 -10 -30.501 -10
c-14.667 0 -24.5 2.5 -29.5 7.5s-7.5 14.5 -7.5 28.5c0 8.66699 0.166992 17 0.5 25s1.66602 18 3.99902 30s11.333 24 27 36s24.834 16.667 27.501 14c0.666992 -0.666992 -2.5 -4.66699 -9.5 -12s-11.167 -14.666 -12.5 -21.999z" />
    <glyph glyph-name="quotedblright" unicode="&#x201d;" horiz-adv-x="246" 
d="M170 642l5.00391 36.001c-15.333 0 -26.166 2.16699 -32.499 6.5s-9.5 13.5 -9.5 27.5s2.66699 23.667 8 29s15 8 29 8c13.333 0 22.666 -2.66699 27.999 -8s8 -15 8 -29v-13c0 -13.333 -1.33301 -26.5 -4 -39.5s-11.834 -25.5 -27.501 -37.5
s-24.834 -16.667 -27.501 -14c-0.666992 1.33301 2.66602 5.66602 9.99902 12.999s11.666 14.333 12.999 21zM66.0039 642.001l5.00098 36c-14.667 0 -25.334 2.33301 -32.001 7s-10 13.667 -10 27c0 14 2.66699 23.667 8 29s15 8 29 8s23.667 -2.66699 29 -8s8 -15 8 -29
v-13c0 -13.333 -1.5 -26.666 -4.5 -39.999s-12 -26 -27 -38s-24.167 -16.333 -27.5 -13c-0.666992 0.666992 2.5 4.66699 9.5 12s11.167 14.666 12.5 21.999z" />
    <glyph glyph-name="quotedblbase" unicode="&#x201e;" horiz-adv-x="973" 
d="M365 589l62 -376.001l61 377h-12c-13.333 0 -20 7 -20 21v147c0 8 1.33301 13.333 4 16s8 4 16 4h107c8.66699 0 14.167 -1.16699 16.5 -3.5s3.5 -7.83301 3.5 -16.5v-147c0 -14.667 -5 -22 -15 -22h-10l-91 -589h-117l-50 308l-48 -308h-113l-95 589h-5
c-12.667 0 -19 7.33301 -19 22v146c0 8.66699 1.33301 14.334 4 17.001s8 4 16 4h106c13.333 0 20 -6.66699 20 -20v-147c0 -14.667 -6.33301 -22 -19 -22h-10l57 -377l64 378h-16c-12.667 0 -19 7 -19 21v147c0 13.333 6.33301 20 19 20h118
c8.66699 0 14.167 -1.16699 16.5 -3.5s3.5 -7.83301 3.5 -16.5v-147c0 -7.33301 -1.5 -12.833 -4.5 -16.5s-8.16699 -5.5 -15.5 -5.5h-15zM602 188.999l63 401h-28v188h237v-189h-27l62 -400h26v-189h-157v191h45l-22 106h-90l-18 -110h41v-187h-155v189h23zM787 395.999
l-31 169l-30 -169h61z" />
    <glyph glyph-name="bullet" unicode="&#x2022;" horiz-adv-x="213" 
d="M38 391c0 19.333 6.66699 35.666 20 48.999s29.666 20 48.999 20s35.666 -6.66699 48.999 -20s20 -29.666 20 -48.999s-6.66699 -35.666 -20 -48.999s-29.666 -20 -48.999 -20s-35.666 6.66699 -48.999 20s-20 29.666 -20 48.999z" />
    <glyph glyph-name="perthousand" unicode="&#x2030;" horiz-adv-x="660" 
d="M81 0l442 673h-40l-442 -673h40zM71 453v166.002c0 23.333 5.16699 41.166 15.5 53.499s22.833 18.5 37.5 18.5s27.167 -6.16699 37.5 -18.5s15.5 -30.166 15.5 -53.499v-166c0 -24.667 -5 -43.334 -15 -56.001s-22 -19 -36 -19c-14.667 0 -27.5 6.66699 -38.5 20
s-16.5 31.666 -16.5 54.999zM109 592.002v-113c0 -16 5 -24 15 -24s15 8 15 24v114c0 14 -5 21 -15 21s-15 -7.33301 -15 -22zM387 72.002v166c0 23.333 5.16699 41.166 15.5 53.499s22.833 18.5 37.5 18.5s27.167 -6.16699 37.5 -18.5s15.5 -30.166 15.5 -53.499v-166
c0 -24.667 -4.83301 -43.334 -14.5 -56.001s-21.5 -19 -35.5 -19c-14.667 0 -27.667 6.83301 -39 20.5s-17 31.834 -17 54.501zM425 211.002v-113c0 -16 5 -24 15 -24s15 8 15 24v114c0 14 -5 21 -15 21s-15 -7.33301 -15 -22zM524 72.002v166
c0 23.333 5.16699 41.166 15.5 53.499s22.833 18.5 37.5 18.5s27.167 -6.16699 37.5 -18.5s15.5 -30.166 15.5 -53.499v-166c0 -24.667 -4.83301 -43.334 -14.5 -56.001s-21.5 -19 -35.5 -19c-14.667 0 -27.667 6.83301 -39 20.5s-17 31.834 -17 54.501zM562 211.002v-113
c0 -16 5 -24 15 -24s15 8 15 24v114c0 14 -5 21 -15 21s-15 -7.33301 -15 -22z" />
    <glyph glyph-name="trademark" unicode="&#x2122;" horiz-adv-x="422" 
d="M29 710c0 5.33301 2.66699 7.99902 8 7.99902h112c6 0 9 -2.66699 9 -8v-99c0 -4 -2.33301 -6 -7 -6h-14c-4 0 -6 2 -6 6v24c0 5.33301 -2.66699 8 -8 8h-11v-161h5c2.66699 -1.33301 4 -2.66602 4 -3.99902v-63c0 -2 -0.333008 -3.66699 -1 -5s-1.66699 -2.33301 -3 -3
h-48c-2 4 -3 6.66699 -3 8v64c0 1.33301 2 2.33301 6 3h4v160h-11c-6 0 -9 -2.33301 -9 -7v-27l-7 -3h-11c-6 0 -9 1.33301 -9 4v101zM288 560.999l-33 156h-63c-5.33301 0 -8 -2.66699 -8 -8v-59c0 -5.33301 2.66699 -8 8 -8h4v-160h-4c-5.33301 0 -8 -2 -8 -6v-61
c0 -5.33301 2.66699 -8 8 -8h43c5.33301 0 8 2.66699 8 8v61c0 4 -2 6 -6 6h-6v160l48 -235h17l49 235v-160h-7c-4 0 -6 -2 -6 -6v-61c0 -5.33301 2.66699 -8 8 -8h43c5.33301 0 8 2.66699 8 8v61c0 4 -2.66699 6 -8 6h-4v160h4c6 0 9 2.66699 9 8v59c0 5.33301 -3 8 -9 8
h-63z" />
    <glyph glyph-name="nonmarkingreturn" horiz-adv-x="203" 
 />
  </font>
</defs>
</svg>
